excel tabelle | John Cusack | Oh! My Goddess

Скачать через торрент музыку бесплатно без регистрации torrent

Статистика раздачи
Размер:  178 MB   |    Зарегистрирован:  3 месяца 24 дня   |    .torrent скачан:  34 раза   |   
Раздают:  1  
   
загрузка...
 
Автор Сообщение

Galfimbul

avatar Galfimbul


Verneri Pohjola & Mika Kallio - Animal Image

Жанр: soundtrack, experimental, modern, ambient
Носитель: WEB
Страна-производитель диска (релиза): Fin
Год издания: 2018
Издатель (лейбл): Edition Records
Страна исполнителя (группы): Finland
Аудиокодек: FLAC (*.flac)
Тип рипа: tracks
Битрейт аудио: lossless
Продолжительность: 37:10
Источник (релизер): verneripohjolamusic.bandcamp.com/album/animal-image
Наличие сканов в содержимом раздачи: нет
Треклист:
1. Where Do You Feel at Home
2. Outside
3. Foxplay
4. Man
5. Goshawk’s Dream
6. Animal Image
Доп. информация: Animal Image - ост к поэтической и медитативной документальной ленте. Фильм иллюстрирует эмоциональную связь между человеком и животным за пределами письменного языка или вымышленных сюжетных линий. Фильм показывает нам путешествие фотографа природы и писателя Хейкки Вилламо в пейзаже северной пустыни после ледникового периода, цель которой исследовать древние отношения человека с его жертвой и личные встречи Вилламо с жителями северного леса. Фильм срежиссировал Perttu Saksa, визуальный художник, базирующийся в Хельсинки, Финляндия. Его фотографии и видео были представлены в различных галереях и музеях по всей Европе, а так же находятся в частных коллекциях. Обложка его произведение.
Здесь снять пробу http://www.youtube.com/watch?v=dAXxHmJs2lY

ОбщееПолное имя : /Users/user/Movies/Verneri Pohjola & Mika Kallio - Animal Image (2018) [WEB FLAC]/1 - Where Do You Feel at Home.flacФормат : FLACФормат/Информация : Free Lossless Audio CodecРазмер файла : 28,2 МбайтПродолжительность : 6 м. 43 с.Режим общего битрейта : ПеременныйОбщий поток : 587 Кбит/секАльбом : Animal ImageЧасть : 1Часть/Всего : 1Трек : Where Do You Feel at HomeТрек/Положение : 1Трек/Всего : 6Исполнитель : Verneri Pohjola & Mika KallioЖанр : JazzДата записи : 2018Обложка : YesТип обложки : Cover (front)MIME-тип обложки : image/jpeg

АудиоФормат : FLACФормат/Информация : Free Lossless Audio CodecПродолжительность : 6 м. 43 с.Вид битрейта : ПеременныйБитрейт : 584 Кбит/секКаналы : 2 каналаРасположение каналов : Front: L RЧастота : 44,1 КГцБитовая глубина : 16 битРазмер потока : 28,1 Мбайт (100%)Библиотека кодирования : libFLAC 1.3.1 (UTC 2014-11-25)

ОбщееПолное имя : /Users/user/Movies/Verneri Pohjola & Mika Kallio - Animal Image (2018) [WEB FLAC]/2 - Outside.flacФормат : FLACФормат/Информация : Free Lossless Audio CodecРазмер файла : 34,3 МбайтПродолжительность : 7 м. 52 с.Режим общего битрейта : ПеременныйОбщий поток : 608 Кбит/секАльбом : Animal ImageЧасть : 1Часть/Всего : 1Трек : OutsideТрек/Положение : 2Трек/Всего : 6Исполнитель : Verneri Pohjola & Mika KallioЖанр : JazzДата записи : 2018Обложка : YesТип обложки : Cover (front)MIME-тип обложки : image/jpeg

АудиоФормат : FLACФормат/Информация : Free Lossless Audio CodecПродолжительность : 7 м. 52 с.Вид битрейта : ПеременныйБитрейт : 606 Кбит/секКаналы : 2 каналаРасположение каналов : Front: L RЧастота : 44,1 КГцБитовая глубина : 16 битРазмер потока : 34,1 Мбайт (100%)Библиотека кодирования : libFLAC 1.3.1 (UTC 2014-11-25)

ОбщееПолное имя : /Users/user/Movies/Verneri Pohjola & Mika Kallio - Animal Image (2018) [WEB FLAC]/3 - Foxplay.flacФормат : FLACФормат/Информация : Free Lossless Audio CodecРазмер файла : 23,9 МбайтПродолжительность : 4 м. 27 с.Режим общего битрейта : ПеременныйОбщий поток : 752 Кбит/секАльбом : Animal ImageЧасть : 1Часть/Всего : 1Трек : FoxplayТрек/Положение : 3Трек/Всего : 6Исполнитель : Verneri Pohjola & Mika KallioЖанр : JazzДата записи : 2018Обложка : YesТип обложки : Cover (front)MIME-тип обложки : image/jpeg

АудиоФормат : FLACФормат/Информация : Free Lossless Audio CodecПродолжительность : 4 м. 27 с.Вид битрейта : ПеременныйБитрейт : 748 Кбит/секКаналы : 2 каналаРасположение каналов : Front: L RЧастота : 44,1 КГцБитовая глубина : 16 битРазмер потока : 23,8 Мбайт (99%)Библиотека кодирования : libFLAC 1.3.1 (UTC 2014-11-25)

ОбщееПолное имя : /Users/user/Movies/Verneri Pohjola & Mika Kallio - Animal Image (2018) [WEB FLAC]/4 - Man.flacФормат : FLACФормат/Информация : Free Lossless Audio CodecРазмер файла : 36,0 МбайтПродолжительность : 7 м. 28 с.Режим общего битрейта : ПеременныйОбщий поток : 673 Кбит/секАльбом : Animal ImageЧасть : 1Часть/Всего : 1Трек : ManТрек/Положение : 4Трек/Всего : 6Исполнитель : Verneri Pohjola & Mika KallioЖанр : JazzДата записи : 2018Обложка : YesТип обложки : Cover (front)MIME-тип обложки : image/jpeg

АудиоФормат : FLACФормат/Информация : Free Lossless Audio CodecПродолжительность : 7 м. 28 с.Вид битрейта : ПеременныйБитрейт : 671 Кбит/секКаналы : 2 каналаРасположение каналов : Front: L RЧастота : 44,1 КГцБитовая глубина : 16 битРазмер потока : 35,9 Мбайт (100%)Библиотека кодирования : libFLAC 1.3.1 (UTC 2014-11-25)

ОбщееПолное имя : /Users/user/Movies/Verneri Pohjola & Mika Kallio - Animal Image (2018) [WEB FLAC]/5 - Goshawk's Dream.flacФормат : FLACФормат/Информация : Free Lossless Audio CodecРазмер файла : 17,9 МбайтПродолжительность : 3 м. 56 с.Режим общего битрейта : ПеременныйОбщий поток : 636 Кбит/секАльбом : Animal ImageЧасть : 1Часть/Всего : 1Трек : Goshawk's DreamТрек/Положение : 5Трек/Всего : 6Исполнитель : Verneri Pohjola & Mika KallioЖанр : JazzДата записи : 2018Обложка : YesТип обложки : Cover (front)MIME-тип обложки : image/jpeg

АудиоФормат : FLACФормат/Информация : Free Lossless Audio CodecПродолжительность : 3 м. 56 с.Вид битрейта : ПеременныйБитрейт : 631 Кбит/секКаналы : 2 каналаРасположение каналов : Front: L RЧастота : 44,1 КГцБитовая глубина : 16 битРазмер потока : 17,8 Мбайт (99%)Библиотека кодирования : libFLAC 1.3.1 (UTC 2014-11-25)

ОбщееПолное имя : /Users/user/Movies/Verneri Pohjola & Mika Kallio - Animal Image (2018) [WEB FLAC]/6 - Animal Image.flacФормат : FLACФормат/Информация : Free Lossless Audio CodecРазмер файла : 37,6 МбайтПродолжительность : 6 м. 44 с.Режим общего битрейта : ПеременныйОбщий поток : 781 Кбит/секАльбом : Animal ImageЧасть : 1Часть/Всего : 1Трек : Animal ImageТрек/Положение : 6Трек/Всего : 6Исполнитель : Verneri Pohjola & Mika KallioЖанр : JazzДата записи : 2018Обложка : YesТип обложки : Cover (front)MIME-тип обложки : image/jpeg

АудиоФормат : FLACФормат/Информация : Free Lossless Audio CodecПродолжительность : 6 м. 44 с.Вид битрейта : ПеременныйБитрейт : 778 Кбит/секКаналы : 2 каналаРасположение каналов : Front: L RЧастота : 44,1 КГцБитовая глубина : 16 битРазмер потока : 37,5 Мбайт (100%)Библиотека кодирования : libFLAC 1.3.1 (UTC 2014-11-25)
Produced by Perttu Saksa and Verneri Pohjola
Recorded at Finnvox Studios by Risto Hemmi
Mixed by Mikko Raita at Studio Kekkonen
Verneri Pohjola plays Van Laar Trumpets and Wedge Mouthpieces
Mika Kallio plays PAISTE Cymbals, percussion, sounds & gongs.
Не забываем нажать - сказать "Спасибо"

Трекер:  [ 24-Фев-2018 22:36 ]

  

Скачать .torrent

Размер .torrent файла 14 KB


Размер: 178 MB
Хэш (hash) релиза: 8db7944a9da857ab5b6ac80dc807131f8aa0d8f1

Еще никто не оставлял запись к записи скачать торрент . Будь первым!

!Обратная связь