Progressive Black | The Interceptor | Microsoft Office 2016 MacOSX 21 43 0 VL + Crack

Скачать через торрент Легенда о Коловрате Фильм бесплатно в хорошем качестве torrent

Скачивайте на UnionPeer.org фильмы через торрент без регистрации. Новинки кино в хорошем качестве через торрент. На UnionPeer.org можно скачать через торрент фильмы 2014 и 2015 годов. Самые новые фильмы.

Скачать торрент Легенда о Коловрате бесплатно через .torrent фильм мультфильм сериал

Статистика раздачи
Размер:  6.56 GB   |    Зарегистрирован:  4 месяца 26 дней   |    .torrent скачан:  135 раз   |   
Раздают:  1  
   
загрузка...
 
Автор Сообщение

Galfimbul

avatar Galfimbul


Легенда о Коловрате

Год выхода: 2017
Жанр: Фэнтези, приключения, история
Режиссер: Иван Шурховецкий
В ролях: Илья Малаков, Полина Чернышова, Алексей Серебряков, Александр Ильин мл., Игорь Савочкин, Тимофей Трибунцев, Александр Цой, Юлия Хлынина, Андрей Бурковский, Виктор Проскурин
Описание: XIII век. Русь раздроблена и вот-вот падет на колени перед ханом Золотой Орды Батыем. Испепеляя города и заливая русские земли кровью, захватчики не встречают серьезного сопротивления, и лишь один воин бросает им вызов. Молодой рязанский витязь Евпатий Коловрат возглавляет отряд смельчаков, чтобы отомстить за свою любовь и за свою родину. Его отвага поразит даже Батыя, а его имя навсегда останется в памяти народа. Воин, ставший легендой. Подвиг, сохранившийся в веках.
Страна: Россия
Студия: Централ Партнершип
Продолжительность: 01:57:45
Язык: Русский
Файл
Кодек: MPEG-2
Качество: DVD-9 (Исходник Немецкий Blu-ray 1080р)
Видео: MPEG2, NTSC 16:9 ([email protected]) VBR, 23,976 кадра/сек
Звук: Русский / Немецкий DD 5.1 (448 Kbps)

<img src="http://rating.kinopoisk.ru/844118.gif" /></a>
Title:
Size: 6.56 Gb ( 6 875 604 KBytes ) - DVD-9
Enabled regions: 1, 2, 3, 4, 5, 6, 7, 8

VTS_01 :
Play Length: 01:57:45+00:02:03
Video: NTSC 16:9 (720x480) VBR, Auto Pan&Scan
Audio:
Russian (Dolby AC3, 6 ch)
Deutsch (Dolby AC3, 6 ch)

Menu Video:
NTSC 4:3 (720x480) VBR
Menu English Language Unit :
Root Menu
Общее
Полное имя : G:ААА2ЛЕГЕНДА О КОЛОВРАТЕVIDEO_TSVTS_01_1.VOB
Формат : MPEG-PS
Размер файла : 1000 Мбайт
Продолжительность : 18 м.
Режим общего битрейта : Переменный
Общий поток : 7736 Кбит/сек

Видео
Идентификатор : 224 (0xE0)
Формат : MPEG Video
Версия формата : Version 2
Профиль формата : [email protected]
Параметр BVOP формата : Да
Параметр матрицы формата : По умолчанию
Параметр GOP формата : M=3, N=12
Продолжительность : 18 м.
Вид битрейта : Переменный
Битрейт : 6686 Кбит/сек
Максимальный битрейт : 8304 Кбит/сек
Ширина : 720 пикселей
Высота : 480 пикселей
Соотношение сторон : 16:9
Частота кадров : 23,976 кадра/сек
Стандарт вещания : NTSC
Цветовое пространство : YUV
Субдискретизация насыщенности : 4:2:0
Битовая глубина : 8 бит
Тип развёртки : Прогрессивная
Порядок развёртки : 2:3 Pulldown
Метод сжатия : С потерями
Бит/(Пиксели*Кадры) : 0.807
TimeCode_FirstFrame : 00:00:00;00
TimeCode_Source : Group of pictures header
Размер потока : 864 Мбайт (86%)

Аудио #1
Идентификатор : 189 (0xBD)-128 (0x80)
Формат : AC-3
Формат/Информация : Audio Coding 3
Расширение режима : CM (complete main)
Параметр Endianness формата : Big
Режим смешивания : DVD-Video
Продолжительность : 18 м.
Вид битрейта : Постоянный
Битрейт : 448 Кбит/сек
Каналы : 6 каналов
Расположение каналов : Front: L C R, Side: L R, LFE
Частота : 48,0 КГц
Битовая глубина : 16 бит
Метод сжатия : С потерями
Размер потока : 57,9 Мбайт (6%)

Аудио #2
Идентификатор : 189 (0xBD)-129 (0x81)
Формат : AC-3
Формат/Информация : Audio Coding 3
Расширение режима : CM (complete main)
Параметр Endianness формата : Big
Режим смешивания : DVD-Video
Продолжительность : 18 м.
Вид битрейта : Постоянный
Битрейт : 448 Кбит/сек
Каналы : 6 каналов
Расположение каналов : Front: L C R, Side: L R, LFE
Частота : 48,0 КГц
Битовая глубина : 16 бит
Метод сжатия : С потерями
Размер потока : 57,9 Мбайт (6%)

Меню
Источник http://arutor.org

Трекер:  [ 24-Фев-2018 21:20 ]

  

Скачать .torrent

Размер .torrent файла 34 KB


Размер: 6.56 GB
Хэш (hash) релиза: 162c9514b8cc32efa9d3a4d7be6b352829badeae
Подписка на обновления:

Торренты, похожие на Легенда о Коловрате скачать торрент

Форум Название Автор Размер S L Добавлен
Российские фильмы до 2016 ·· Легенда о Коловрате (Джаник Файзиев, Иван Шурховецкий) [2017, история, боевик, фэнтези, BDRip-AVC] Galfimbul 781756494746 MB 0 0 1521114859

14:54

15-Мар-18

Российские фильмы до 2016 ·· Легенда о Коловрате (Джаник Файзиев / Иван Шурховецкий) [2017, Россия, исторический, военный, биографический, DVD5] + Original Rus Galfimbul 45385482244.23 GB 0 0 1520179608

19:06

4-Мар-18

Российские фильмы до 2016 ·· Легенда о Коловрате (Джаник Файзиев, Иван Шурховецкий) [2017, Россия, история, боевик, фэнтези, Blu-ray disc 1080p] [GER Transfer] Original (Rus) + Sub (Deu) Galfimbul 4026534494837.5 GB 0 0 1519726233

13:10

27-Фев-18

Российские фильмы до 2016 ·· Легенда о Коловрате (Джаник Файзиев, Иван Шурховецкий) [2017, Россия, история, боевик, фэнтези, BDRip] Galfimbul 15655567361.46 GB 0 0 1519556850

14:07

25-Фев-18

Российские фильмы до 2016 ·· Легенда о Коловрате (Джаник Файзиев, Иван Шурховецкий) [2017, история, боевик, фэнтези, BDRip-AVC] [GER Transfer] Galfimbul 30706799372.86 GB 0 0 1519508066

00:34

25-Фев-18

Российские фильмы 2016-2018 (Новинки русского кино) ·· Легенда о Коловрате (Джаник Файзиев, Иван Шурховецкий) [2017, история, боевик, фэнтези, BDRemux 1080p] GER Transfer | Лицензия Galfimbul 3467966855532.3 GB 0 0 1519461286

11:34

24-Фев-18

Российские фильмы 2016-2018 (Новинки русского кино) ·· Легенда о Коловрате (Джаник Файзиев, Иван Шурховецкий) [2017, история, боевик, фэнтези, BDRip] Лицензия Galfimbul 781856768746 MB 0 0 1519450267

08:31

24-Фев-18

Российские фильмы 2016-2018 (Новинки русского кино) ·· Легенда о Коловрате (Джаник Файзиев, Иван Шурховецкий) [2017, история, боевик, фэнтези, BDRip] Лицензия Galfimbul 15709122561.46 GB 3 0 1519450254

08:30

24-Фев-18

Российские фильмы 2016-2018 (Новинки русского кино) ·· Легенда о Коловрате (Джаник Файзиев, Иван Шурховецкий) [2017, история, боевик, фэнтези, BDRip] Лицензия Galfimbul 23436042242.18 GB 0 0 1519450240

08:30

24-Фев-18

Российские фильмы 2016-2018 (Новинки русского кино) ·· Легенда о Коловрате (Джаник Файзиев, Иван Шурховецкий) [2017, история, боевик, фэнтези, Blu-ray 1080p] GER Transfer | Лицензия Galfimbul 4026534494837.5 GB 0 0 1519450226

08:30

24-Фев-18

Российские фильмы до 2016 ·· Легенда о Коловрате (Джаник Файзиев, Иван Шурховецкий) [2017, история, боевик, фэнтези, WEB-DLRip] Galfimbul 783124480747 MB 0 0 1517979549

07:59

7-Фев-18

Российские фильмы до 2016 ·· Легенда о Коловрате (Джаник Файзиев, Иван Шурховецкий) [2017, Россия, история, боевик, фэнтези, WEB-DLRip] Galfimbul 23420948482.18 GB 0 0 1517954261

00:57

7-Фев-18

Российские фильмы 2016-2018 (Новинки русского кино) ·· Легенда о Коловрате (Джаник Файзиев, Иван Шурховецкий) [2017 г., история, боевик, фэнтези, WEB-DLRip] | iTunes Galfimbul 22052106242.05 GB 2 0 1517908503

12:15

6-Фев-18

Российские фильмы 2016-2018 (Новинки русского кино) ·· Легенда о Коловрате (Джаник Файзиев, Иван Шурховецкий) [2017, Россия, История, боевик, фэнтези, WEB-DL 1080p] iTunes Galfimbul 43224492274.03 GB 0 0 1517869835

01:30

6-Фев-18

Российские фильмы до 2016 ·· Легенда о Коловрате (Джаник Файзиев, Иван Шурховецкий) [2017, Россия, История, боевик, фэнтези, WEBRip 1080p] Galfimbul 46439557804.33 GB 0 0 1517472497

11:08

1-Фев-18

Российские фильмы 2016-2018 (Новинки русского кино) ·· Легенда о Коловрате (Джаник Файзиев, Иван Шурховецкий) [2017 г., история, боевик, фэнтези, WEB-DLRip] Galfimbul 774991872739 MB 0 0 1517397025

14:10

31-Янв-18

Российские фильмы 2016-2018 (Новинки русского кино) ·· Легенда о Коловрате (Джаник Файзиев, Иван Шурховецкий) [2017 г., история, боевик, фэнтези, WEB-DLRip] Galfimbul 15832883201.47 GB 0 0 1517346030

00:00

31-Янв-18

Российские фильмы до 2016 ·· Легенда о Коловрате (Джаник Файзиев, Иван Шурховецкий) [2017, Россия, история, боевик, фэнтези, WEB-DLRip] Galfimbul 15832883201.47 GB 0 0 1517329897

19:31

30-Янв-18

Российские фильмы 2016-2018 (Новинки русского кино) ·· Легенда о Коловрате (Джаник Файзиев, Иван Шурховецкий) [2017 г., история, боевик, фэнтези, WEB-DL 720p] Galfimbul 44083106654.11 GB 0 0 1517315737

15:35

30-Янв-18

Еще никто не оставлял запись к записи скачать торрент Легенда о Коловрате . Будь первым!

!Обратная связь