once upon a time | penny dreadful | penny dreadful s03e03

Скачать через торрент Бабушкин герой Grandmas Hero Фильм бесплатно в хорошем качестве torrent

Скачивайте на UnionPeer.org фильмы через торрент без регистрации. Новинки кино в хорошем качестве через торрент. На UnionPeer.org можно скачать через торрент фильмы 2014 и 2015 годов. Самые новые фильмы.

Скачать торрент Бабушкин герой Grandmas Hero бесплатно через .torrent фильм мультфильм сериал

Статистика раздачи
Размер:  73 MB   |    Зарегистрирован:  3 месяца 25 дней   |    .torrent скачан:  39 раз   |   
Раздают:  1  
   
загрузка...
 
Автор Сообщение

Galfimbul

avatar Galfimbul


Бабушкин герой / Grandma's Hero

Страна: Дания
Жанр: мультфильм
Продолжительность: 00:07:16
Год выпуска: 2016
Перевод: не требуется
Русские субтитры: нет

Режиссёры: Корентин Монние / Corentin Monnier, Бен Озери / Ben Ozeri

Описание: Выпускник Академии Героев, наконец, обретает шанс проявить себя, получив на выпускном экзамене задание - убить легендарного дракона. Он отправляется в эпическое путешествие, но к его отчаянию, его чрезмерно заботливая бабушка решает присоединиться к нему в этом походе. Это взвинчивает нервы нашего героя до самого предела, и на финальную битву он всё же отправляется один...

Качество: WEBRip
Формат: AVI
Видео: 1270 kbps, 720х304 (2.35:1), 24.000 fps, MPEG-4 Visual (XviD)
Аудио: 128 kbps, 44.1 kHz, 2 channels, MPEG Audio (MP3)
Субтитры: отсутствуют
GeneralComplete name : Grandma's Hero (2016).aviFormat : AVIFormat/Info : Audio Video InterleaveFile size : 73.2 MiBDuration : 7mn 16sOverall bit rate : 1 407 KbpsWriting library : VirtualDub build 35491/release

VideoID : 0Format : MPEG-4 VisualFormat profile : Advanced [email protected] settings, BVOP : 2Format settings, QPel : NoFormat settings, GMC : No warppointsFormat settings, Matrix : Default (H.263)Codec ID : XVIDCodec ID/Hint : XviDDuration : 7mn 16sBit rate : 1 270 KbpsWidth : 720 pixelsHeight : 304 pixelsDisplay aspect ratio : 2.35:1Frame rate : 24.000 fpsColor space : YUVChroma subsampling : 4:2:0Bit depth : 8 bitsScan type : ProgressiveCompression mode : LossyBits/(Pixel*Frame) : 0.242Stream size : 66.1 MiB (90%)Writing library : XviD 64

AudioID : 1Format : MPEG AudioFormat version : Version 1Format profile : Layer 3Mode : Joint stereoMode extension : MS StereoCodec ID : 55Codec ID/Hint : MP3Duration : 7mn 16sBit rate mode : ConstantBit rate : 128 KbpsChannel(s) : 2 channelsSampling rate : 44.1 KHzCompression mode : LossyStream size : 6.64 MiB (9%)Alignment : Split accross interleavesInterleave, duration : 42 ms (1.00 video frame)Interleave, preload duration : 501 ms


Трекер:  [ 24-Фев-2018 05:36 ]

  

Скачать .torrent

Размер .torrent файла 12 KB


Размер: 73 MB
Хэш (hash) релиза: d5604faceb94f700b7bc94561e26062677d0ef6a
Подписка на обновления:

Еще никто не оставлял запись к записи скачать торрент Бабушкин герой Grandmas Hero . Будь первым!

!Обратная связь