The Flash Season 01 [Episode 01 Added] 720p BluRay x264 AC3 ESub Dual Audio [Hindi + English] 405MB | Boar 2018.BDRip.XviD.AC3-EVO | livestream Strange Magic free

Скачать порно через торрент [MilfVR.com] Katie Morgan UnionPeer.org бесплатно онлайн HD качество

Скачать новое порно 2015, 2014 новинки через торрент UnionPeer.org

Порно торрент бесплатно ЮнионПир.орг

Статистика раздачи
Размер:  3.03 GB   |    Зарегистрирован:  5 месяцев 26 дней   |    .torrent скачан:  127 раз   |   
Раздают:  1  
   
загрузка...
 
Автор Сообщение

Galfimbul

avatar Galfimbul


Имя актрисы: Katie Morgan
Название ролика: Sponge Bath
Сайт: MilfVR.com

Год производства: 2017 г.
Жанр: Big Tits, Blonde, Blowjob, Cowgirl, Cum on Stomach, Deep Throat, Doggy Style, Kissing, MILF, Missionary, Reverse Cowgirl, Titty Fucking, VR
Продолжительность: 00:54:07

Описание: You''ve had a near-death experience and all of a sudden your reality seems a little brighter. It will be a long and hard road to recovery but the very dedicated and sexy nurse, Katie Morgan will get you back on your feet again. Katie applies her medical knowledge and every asset at her disposal to make you feel better. She takes her Hippocratic Oath seriously and strips down to reveal what''s under her uniform. Give Katie your dick and 10 cc''s of cum stat!

Тип HD видео: 1080p
Тип устройства: Smartphone / Mobile
Тип 3D: SideBySide
Формат видео: MP4
Видео: AVC, 2160x1080, 59.94fps, 7788kbps
Аудио: AAC LC, 48 KHz, stereo, 221kbps, VR
General
Complete name : D:\Downloads\VR\milfvr-sponge-bath-smartphone-180_180x180_3dh_LR.mp4
Format : MPEG-4
Codec ID : M4V
File size : 3.03 GiB
Duration : 54mn 7s
Overall bit rate mode : Variable
Overall bit rate : 8 021 Kbps
Encoded date : UTC 2017-09-27 18:37:12
Tagged date : UTC 2017-09-27 18:37:12

Video
ID : 1
Format : AVC
Format/Info : Advanced Video Codec
Format profile : [email protected]
Format settings, CABAC : Yes
Format settings, ReFrames : 2 frames
Format settings, GOP : M=3, N=90
Codec ID : avc1
Codec ID/Info : Advanced Video Coding
Duration : 54mn 7s
Bit rate mode : Variable
Bit rate : 7 788 Kbps
Maximum bit rate : 8 800 Kbps
Width : 2 160 pixels
Height : 1 080 pixels
Display aspect ratio : 2.000
Frame rate mode : Constant
Frame rate : 59.940 fps
Color space : YUV
Chroma subsampling : 4:2:0
Bit depth : 8 bits
Scan type : Progressive
Bits/(Pixel*Frame) : 0.056
Stream size : 2.94 GiB (97%)
Encoded date : UTC 2017-09-27 18:37:12
Tagged date : UTC 2017-09-27 18:37:12

Audio
ID : 2
Format : AAC
Format/Info : Advanced Audio Codec
Format profile : LC
Codec ID : 40
Duration : 54mn 7s
Bit rate mode : Variable
Bit rate : 224 Kbps
Maximum bit rate : 229 Kbps
Channel(s) : 2 channels
Channel positions : Front: L R
Sampling rate : 48.0 KHz
Compression mode : Lossy
Stream size : 85.7 MiB (3%)
Encoded date : UTC 2017-09-27 18:37:12
Tagged date : UTC 2017-09-27 18:37:12


Трекер:  [ 24-Фев-2018 00:20 ]

  

Скачать .torrent

Размер .torrent файла 15 KB


Размер: 3.03 GB
Хэш (hash) релиза: 677c99cdc7c1a08e65d5188ef46727aea08ea200

Еще никто не оставлял запись к записи скачать торрент [MilfVR.com] Katie Morgan . Будь первым!

!Обратная связь