Daddy's Home 2 (2017) [VOSTFR] Blu-ray Having finally gotten used to each other's existence, Brad and Dusty must now deal with their intrusive fathers during the holidays. | Telugu Movie | Frequency

Скачать через торрент Матрос Пётр Кошка Фильм бесплатно в хорошем качестве torrent

Скачивайте на UnionPeer.org фильмы через торрент без регистрации. Новинки кино в хорошем качестве через торрент. На UnionPeer.org можно скачать через торрент фильмы 2014 и 2015 годов. Самые новые фильмы.

Скачать торрент Матрос Пётр Кошка бесплатно через .torrent фильм мультфильм сериал

Статистика раздачи
Размер:  105 MB   |    Зарегистрирован:  3 месяца 23 дня   |    .torrent скачан:  28 раз   |   
Раздают:  1  
   
загрузка...
 
Автор Сообщение

Galfimbul

avatar Galfimbul


Матрос Пётр Кошка

Страна: Россия
Жанр: мультфильм
Продолжительность: 00:13:45
Год выпуска: 2017

Режиссёр: Валентин Телегин

Описание: Истории про легендарного матроса Черноморского флота, героя обороны Севастополя в период Крымской войны 1853-1856 гг.

Качество: WEBRip-AVC
Формат: MP4
Видео: 935 kbps, 1280х720 (16:9), 25.000 fps, AVC ([email protected])
Аудио: 126 kbps, 44.1 kHz, 2 channels, AAC (LC)
Субтитры: отсутствуют
GeneralComplete name : Матрос Пётр Кошка (2017).mp4Format : MPEG-4Format profile : Base Media / Version 2Codec ID : mp42File size : 105 MiBDuration : 13mn 45sOverall bit rate mode : VariableOverall bit rate : 1 065 KbpsEncoded date : UTC 2017-11-01 06:45:27Tagged date : UTC 2017-11-01 06:45:27gsst : 0gstd : 825051

VideoID : 1Format : AVCFormat/Info : Advanced Video CodecFormat profile : [email protected] settings, CABAC : YesFormat settings, ReFrames : 3 framesCodec ID : avc1Codec ID/Info : Advanced Video CodingDuration : 13mn 45sBit rate : 936 KbpsWidth : 1 280 pixelsHeight : 720 pixelsDisplay aspect ratio : 16:9Frame rate mode : ConstantFrame rate : 25.000 fpsColor space : YUVChroma subsampling : 4:2:0Bit depth : 8 bitsScan type : ProgressiveBits/(Pixel*Frame) : 0.041Stream size : 92.1 MiB (88%)Title : ISO Media file produced by Google Inc. Created on: 10/31/2017.Encoded date : UTC 2017-11-01 06:45:27Tagged date : UTC 2017-11-01 06:45:27Color primaries : BT.709Transfer characteristics : BT.709Matrix coefficients : BT.709

AudioID : 2Format : AACFormat/Info : Advanced Audio CodecFormat profile : LCCodec ID : 40Duration : 13mn 45sBit rate mode : VariableBit rate : 126 KbpsChannel(s) : 2 channelsChannel positions : Front: L RSampling rate : 44.1 KHzCompression mode : LossyStream size : 12.4 MiB (12%)Title : ISO Media file produced by Google Inc. Created on: 10/31/2017.Encoded date : UTC 2017-11-01 06:45:27Tagged date : UTC 2017-11-01 06:45:27


Трекер:  [ 23-Фев-2018 05:36 ]

  

Скачать .torrent

Размер .torrent файла 17 KB


Размер: 105 MB
Хэш (hash) релиза: f39f432ab15aae402fdefaaac6121e8b60f2c5a2
Подписка на обновления:

Еще никто не оставлял запись к записи скачать торрент Матрос Пётр Кошка . Будь первым!

!Обратная связь