all upcoming movies | LINE: Llama y mensajea gratis | 1x492 Elif

Скачать через торрент Инуяшики Инуясики Фильм бесплатно в хорошем качестве torrent

Скачивайте на UnionPeer.org фильмы через торрент без регистрации. Новинки кино в хорошем качестве через торрент. На UnionPeer.org можно скачать через торрент фильмы 2014 и 2015 годов. Самые новые фильмы.

Скачать торрент Инуяшики Инуясики бесплатно через .torrent фильм мультфильм сериал

Статистика раздачи
Размер:  1.13 GB   |    Зарегистрирован:  4 месяца 26 дней   |    .torrent скачан:  27 раз   |   
Раздают:  1  
   
загрузка...
 
Автор Сообщение

Galfimbul

avatar Galfimbul


Инуяшики/Инуясики
Оригинальное название: いぬやしき
Английское название: Inuyashiki Last Hero
Период трансляции: c 13.10.2017 по 22.12.2017
Страна: Япония
Жанр: приключения, фантастика, драма
Продолжительность: 11 эп. по 23 мин.
Режиссер: Сато Кэйити
Студия:
Перевод: Субтитры от AniPlay.TV
Перевод: Amortem: Редактура: Octupus/Lokker
Описание: Ичиро Инуяшики — простой 58-летний японец. Он плохо выглядит для своих лет, у него есть жена и двое детей, которые ни в грош его не ставят, а ещё у него обнаруживают неизлечимый рак, и жить ему остаётся три месяца. Казалось бы, хуже некуда, но однажды в парке Ичиро становится жертвой загадочного взрыва, судя по всему, инопланетного происхождения. Когда он приходит в себя, то выясняет, что получил новое тело, которое внешне неотличимо от старого, но при этом значительно сильнее и полностью механическое. Осознав всё это, очень даже зрелый (и даже пожилой) дядька решает стать супергероем: сражаться с преступностью и помогать страждущим. И всё бы ничего, но вместе с добряком Инуяшики аналогичное превращение претерпел и школьник Шишигами Хиро — социопат, убивающий невинных ради удовольствия.
01. Ichiro Inuyashiki
02. Hiro Shishigami
03. Naoyuki Ando
04. Samejima
05. Yuko Shishigami
06. People of 2chan
07. Shion Watanabe
08. Mari Inuyashiki
09. People of Shinjuku
10. People of Tokyo
11. People of Earth

Качество видео: WEBRip
Формат: MP4
Видео кодек: H.264
Аудио кодек: AAC
Видео: MPEG4 Video (H264) 480x272 23.976fps 511kbps
Аудио: AAC 48000Hz stereo 128kbps
Format : MPEG-4
Format profile : Base Media
Codec ID : isom (isom/avc1)
File size : 105 MiB
Duration : 22 min
Overall bit rate mode : Variable
Overall bit rate : 644 kb/s
Encoded date : UTC 2018-02-19 17:57:23
Tagged date : UTC 2018-02-19 17:57:23

Video
ID : 1
Format : AVC
Format/Info : Advanced Video Codec
Format profile : [email protected]
Format settings, CABAC : Yes
Format settings, ReFrames : 2 frames
Codec ID : avc1
Codec ID/Info : Advanced Video Coding
Duration : 22 min
Bit rate : 512 kb/s
Maximum bit rate : 2 392 kb/s
Width : 480 pixels
Height : 272 pixels
Display aspect ratio : 16:9
Frame rate mode : Constant
Frame rate : 23.976 (24000/1001) FPS
Color space : YUV
Chroma subsampling : 4:2:0
Bit depth : 8 bits
Scan type : Progressive
Bits/(Pixel*Frame) : 0.164
Stream size : 83.6 MiB (79%)
Writing library : x264 core 65 r999kMod cc51047
Encoding settings : cabac=1 / ref=2 / deblock=1:-2:-1 / analyse=0x1:0x131 / me=umh / subme=7 / psy_rd=1.0:0.0 / mixed_ref=1 / me_range=16 / chroma_me=1 / trellis=2 / 8x8dct=0 / cqm=0 / deadzone=21,11 / chroma_qp_offset=-2 / threads=2 / thread_queue=2 / nr=0 / decimate=0 / mbaff=0 / bframes=3 / b_pyramid=0 / b_adapt=1 / b_bias=0 / direct=3 / wpredb=1 / keyint=250 / keyint_min=25 / scenecut=40(pre) / rc=2pass / bitrate=512 / ratetol=1.0 / qcomp=0.60 / qpmin=10 / qpmax=51 / qpstep=4 / cplxblur=20.0 / qblur=0.5 / ip_ratio=1.40 / pb_ratio=1.30 / aq=1:1.00
Encoded date : UTC 2018-02-19 17:57:23
Tagged date : UTC 2018-02-19 17:57:27

Audio
ID : 2
Format : AAC
Format/Info : Advanced Audio Codec
Format profile : LC
Codec ID : 40
Duration : 22 min
Bit rate mode : Variable
Bit rate : 129 kb/s
Maximum bit rate : 174 kb/s
Channel(s) : 2 channels
Channel positions : Front: L R
Sampling rate : 48.0 kHz
Frame rate : 46.875 FPS (1024 spf)
Compression mode : Lossy
Stream size : 21.0 MiB (20%)
Encoded date : UTC 2018-02-19 17:57:25
Tagged date : UTC 2018-02-19 17:57:27


Трекер:  [ 22-Фев-2018 16:42 ]

  

Скачать .torrent

Размер .torrent файла 12 KB


Размер: 1.13 GB
Хэш (hash) релиза: f2ab707de9f1e9817da1e8649c387d5519ee74d7
Подписка на обновления:

Еще никто не оставлял запись к записи скачать торрент Инуяшики Инуясики . Будь первым!

!Обратная связь