The KMPlayer 4.2.2.13 (2018) РС | + RePack Portable by D!akov / by cuta | Pack 30 - Amstrad CPC (66 ROMS et +++) POUR RECALBOX MULTI | Samsung Galaxy A5 (2017)

Скачать порно через торрент [Ukupskirts Pantyamateur.com] Megapack 1 x100 UnionPeer.org бесплатно онлайн HD качество

Скачать новое порно 2015, 2014 новинки через торрент UnionPeer.org

Порно торрент бесплатно ЮнионПир.орг

Статистика раздачи
Размер:  17.85 GB   |    Зарегистрирован:  4 месяца 24 дня   |    .torrent скачан:  220 раз   |   
Раздают:  1  
   
загрузка...
 
Автор Сообщение

Galfimbul

avatar Galfimbul


[Ukupskirts Pantyamateur.com] Megapack 1 x100 960,1080p,4k Год производства: 2017 г.
Жанр: Solo Fetish
Тип HD видео: 1080p
Качество видео: WEB-DL
Формат видео: WMV
Видео: Windows Media Video 9 1920x1080 25.00fps 8085Kbps
Аудио: Windows Media Audio Stereo 440 kbps, 44 kHz
ukupskirts/010716 UKU Keira Jones.wmv
Format : Windows Media
File size : 315 MiB
Duration : 5mn 16s
Overall bit rate mode : Variable
Overall bit rate : 8 345 Kbps
Maximum Overall bit rate : 10.5 Mbps
Encoded date : UTC 2016-04-21 16:12:22.450

Video
ID : 2
Format : VC-1
Format profile : [email protected]
Codec ID : WMV3
Codec ID/Info : Windows Media Video 9
Codec ID/Hint : WMV3
Description of the codec : Windows Media Video 9 - Professional
Duration : 5mn 16s
Bit rate mode : Variable
Bit rate : 8 000 Kbps
Width : 1 920 pixels
Height : 1 080 pixels
Display aspect ratio : 16:9
Frame rate : 25.000 fps
Bit depth : 8 bits
Compression mode : Lossy
Bits/(Pixel*Frame) : 0.154
Stream size : 302 MiB (96%)
Language : English (GB)
NumberOfFrames : 7911

Audio
ID : 1
Format : WMA
Format profile : Pro
Codec ID : 162
Codec ID/Info : Windows Media Audio
Description of the codec : Windows Media Audio 10 Professional - 440 kbps, 44 kHz, 2 channel 24 bit 2-pass VBR
Duration : 5mn 16s
Bit rate mode : Variable
Bit rate : 402 Kbps
Channel(s) : 2 channels
Sampling rate : 44.1 KHz
Bit depth : 24 bits
Stream size : 15.2 MiB (5%)
Language : English (GB)
NumberOfFrames : 778
ukupskirts/130217_UKU_Lacey_Loo.hd.mp4
Format : MPEG-4
Format profile : Base Media / Version 2
Codec ID : mp42 (mp42/mp41)
File size : 570 MiB
Duration : 5mn 0s
Overall bit rate mode : Variable
Overall bit rate : 15.9 Mbps
Encoded date : UTC 2016-12-07 12:17:16
Tagged date : UTC 2016-12-07 12:17:29
©TIM : 00:00:00:00
©TSC : 25
©TSZ : 1

Video
ID : 1
Format : AVC
Format/Info : Advanced Video Codec
Format profile : [email protected]
Format settings, CABAC : Yes
Format settings, ReFrames : 3 frames
Format settings, GOP : M=3, N=25
Codec ID : avc1
Codec ID/Info : Advanced Video Coding
Duration : 5mn 0s
Bit rate mode : Variable
Bit rate : 15.6 Mbps
Maximum bit rate : 20.0 Mbps
Width : 3 840 pixels
Height : 2 160 pixels
Display aspect ratio : 16:9
Frame rate mode : Constant
Frame rate : 25.000 fps
Standard : PAL
Color space : YUV
Chroma subsampling : 4:2:0
Bit depth : 8 bits
Scan type : Progressive
Bits/(Pixel*Frame) : 0.075
Stream size : 559 MiB (98%)
Language : English
Encoded date : UTC 2016-12-07 12:17:16
Tagged date : UTC 2016-12-07 12:17:16
Color range : Limited
Color primaries : BT.709
Transfer characteristics : BT.709
Matrix coefficients : BT.709

Audio
ID : 2
Format : AAC
Format/Info : Advanced Audio Codec
Format profile : LC
Codec ID : 40
Duration : 5mn 0s
Source duration : 5mn 0s
Bit rate mode : Variable
Bit rate : 317 Kbps
Maximum bit rate : 411 Kbps
Channel(s) : 2 channels
Channel positions : Front: L R
Sampling rate : 48.0 KHz
Frame rate : 46.875 fps (1024 spf)
Compression mode : Lossy
Stream size : 11.4 MiB (2%)
Source stream size : 11.4 MiB (2%)
Language : English
Encoded date : UTC 2016-12-07 12:17:16
Tagged date : UTC 2016-12-07 12:17:16
Fiona_Jane (3).wmv
Format : Windows Media
File size : 56.7 MiB
Duration : 3mn 17s
Overall bit rate mode : Variable
Overall bit rate : 2 407 Kbps
Maximum Overall bit rate : 4 433 Kbps
Encoded date : UTC 2013-10-16 08:52:05.147

Video
ID : 2
Format : VC-1
Format profile : [email protected]
Codec ID : WMV3
Codec ID/Info : Windows Media Video 9
Codec ID/Hint : WMV3
Description of the codec : Windows Media Video 9 - Professional
Bit rate mode : Variable
Bit rate : 2 000 Kbps
Width : 960 pixels
Height : 540 pixels
Display aspect ratio : 16:9
Frame rate mode : Variable
Nominal frame rate : 25.000 fps
Color space : YUV
Chroma subsampling : 4:2:0
Bit depth : 8 bits
Scan type : Progressive
Compression mode : Lossy
NumberOfFrames : 4929

Audio
ID : 1
Format : WMA
Format profile : Pro
Codec ID : 162
Codec ID/Info : Windows Media Audio
Description of the codec : Windows Media Audio 10 Professional - 440 kbps, 44 kHz, 2 channel 24 bit 2-pass VBR
Duration : 3mn 17s
Bit rate mode : Variable
Bit rate : 406 Kbps
Channel(s) : 2 channels
Sampling rate : 44.1 KHz
Bit depth : 24 bits
Stream size : 9.56 MiB (17%)
NumberOfFrames : 486


Трекер:  [ 21-Фев-2018 22:20 ]

  

Скачать .torrent

Размер .torrent файла 95 KB


Размер: 17.85 GB
Хэш (hash) релиза: f2c2806d366b24874bc577b9c5842481f3fc1ec1

Еще никто не оставлял запись к записи скачать торрент [Ukupskirts Pantyamateur.com] Megapack 1 x100 . Будь первым!

!Обратная связь