Mat Kearney - Face To Face | الصفحة التالية | Shirobako

Скачать через торрент Гостья из прошлого Фильм бесплатно в хорошем качестве torrent

Скачивайте на UnionPeer.org фильмы через торрент без регистрации. Новинки кино в хорошем качестве через торрент. На UnionPeer.org можно скачать через торрент фильмы 2014 и 2015 годов. Самые новые фильмы.

Скачать торрент Гостья из прошлого бесплатно через .torrent фильм мультфильм сериал

Статистика раздачи
Размер:  698 MB   |    Зарегистрирован:  5 месяцев 1 день   |    .torrent скачан:  53 раза   |   
Раздают:  1  
   
загрузка...
 
Автор Сообщение

Galfimbul

avatar Galfimbul


Гостья из прошлого

Год выхода: 2017
Жанр: Мелодрама
Режиссер: Вячеслав Лавров
В ролях: Сергей Губанов, Кристина Кузьмина, Татьяна Абраменко, Илья Глазунов, Екатерина Решетникова

О фильме: Андрей и Татьяна в браке уже несколько лет. Они счастливы и очень хотят детей, но Татьяна никак не может забеременеть, а привлекать суррогатную мать или усыновлять ребенка супруги не хотят. Неожиданно к Андрею на работу приходит некая Ольга. Она предъявляет Андрею мальчика – Никиту, и утверждает, что тот его сын. Андрей решает сделать тест ДНК, и, в ожидании результатов, поселяет Ольгу и Никиту у себя на даче. Боясь расстроить жену, он решает ничего не рассказывать Татьяне. Тем временем Таня замечает, что муж слишком часто стал ездить на дачу. Она подозревает, что у Андрея появилась любовница, поэтому едет на дачу сама…


Страна: Россия
Студия: ООО "Тесей Продакшн", Мега Продакшн
Продолжительность: 01:20:30
Перевод: Не Требуется
Субтитры: Нет

Файл
Кодек: XviD
Качество: HDTVRip
Видео: 688x384 (1.79:1), 25 fps, XviD build 73 ~1073 kbps avg, 0.16 bit/pixel
Звук: 48 kHz, MPEG Layer 3, 2 ch, ~128.00 kbps avg
General
Complete name : Gostiya.iz.Proshlogo.2017.HDTVRip.ot.Portablius.avi
Format : AVI
Format/Info : Audio Video Interleave
File size : 698 MiB
Duration : 1 h 20 min
Overall bit rate : 1 212 kb/s
Writing application : VirtualDubMod 1.5.10.3 | www.virtualdub-fr.org || (build 2550/release)
Writing library : VirtualDubMod build 2550/release

Video
ID : 0
Format : MPEG-4 Visual
Format profile : Advanced [email protected]
Format settings, BVOP : 1
Format settings, QPel : No
Format settings, GMC : No warppoints
Format settings, Matrix : Custom
Codec ID : XVID
Codec ID/Hint : XviD
Duration : 1 h 20 min
Bit rate : 1 074 kb/s
Width : 688 pixels
Height : 384 pixels
Display aspect ratio : 16:9
Frame rate : 25.000 FPS
Color space : YUV
Chroma subsampling : 4:2:0
Bit depth : 8 bits
Scan type : Progressive
Compression mode : Lossy
Bits/(Pixel*Frame) : 0.163
Stream size : 618 MiB (89%)
Writing library : XviD 73

Audio
ID : 1
Format : MPEG Audio
Format version : Version 1
Format profile : Layer 3
Codec ID : 55
Codec ID/Hint : MP3
Duration : 1 h 20 min
Bit rate mode : Constant
Bit rate : 128 kb/s
Channel(s) : 2 channels
Sampling rate : 48.0 kHz
Compression mode : Lossy
Stream size : 73.7 MiB (11%)
Alignment : Aligned on interleaves
Interleave, duration : 40 ms (1.00 video frame)
Interleave, preload duratio : 504 ms
Writing library : LAME3.99r
Encoding settings : -m s -V 4 -q 2 -lowpass 17 -b 128
Источник http://arutor.org

Трекер:  [ 19-Фев-2018 16:00 ]

  

Скачать .torrent

Размер .torrent файла 14 KB


Размер: 698 MB
Хэш (hash) релиза: cd4717b296c26e7bd2c2c6d64a2f7efaf0b540ca
Подписка на обновления:

Еще никто не оставлял запись к записи скачать торрент Гостья из прошлого . Будь первым!

!Обратная связь