Cốt Sinh Hoa | IMDb: 8.7 S4E2 Better Call Saul - Season 4 | Kusursuz Sevgili – My Perfect Romance 2018 Türkçe Altyazı izle

Скачать порно через торрент [WankzVR.com] Audrey Royal, Felicity Feline, Franchezca Valentina, Gia Paige, Gina Valentina, Jennifer White, Moka Mora UnionPeer.org бесплатно онлайн HD качество

Скачать новое порно 2015, 2014 новинки через торрент UnionPeer.org

Порно торрент бесплатно ЮнионПир.орг

Статистика раздачи
Размер:  5.25 GB   |    Зарегистрирован:  6 месяцев   |    .torrent скачан:  268 раз   |   
Раздают:  1  
   
загрузка...
 
Автор Сообщение

Galfimbul

avatar Galfimbul


Semen Demons

Имя актрисы: Audrey Royal, Felicity Feline, Franchezca Valentina, Gia Paige, Gina Valentina, Jennifer White, Moka Mora
Название ролика: Semen Demons
Подсайт и сайт: WankzVR.com

Год производства: 2017 г.
Жанр: Ass Licking, Big Cocks, Blonde, Blowjob, Brunette, College, Cosplay, Cowgirl, Creampie, Doggy Style, Group Sex, Interactive, Kissing, Latina, Missionary, Reverse Cowgirl, Small Tits, Titty Fucking
Продолжительность: 1:32:43

Описание: Be careful because the hills have boobs! You and your hot cheerleader girlfriend sneak away in your truck for a kinky fuck session but you discover you''re not alone! Something goes hump in the night as you end up on a wild XXX adventure with Demon Hunters, sperm-crazed Succubi and demonic nurses. This out-of-control group sex adventure features the hardcore cum-harvesting skills of Gina Valentina, Moka Mora, Felicity Feline, Gia Paige, Audrey Royal and more! In the climatic conclusion, you''re the last man standing as you face off against the Dark Queen, Jennifer White!

Тип HD видео: 1080p
Тип устройства: Smartphone / Mobile
Тип 3D: SideBySide
Формат видео: MP4
Видео: H264 2160x1080 59.94fps 7967kbps
Аудио: AAC 48000Hz stereo 128kbps
AUDREY ROYAL
FELICITY FELINE
FRANCHEZCA VALENTINA
GIA PAIGE
GINA VALENTINA
JENNIFER WHITE
MOKA MORA
General
Complete name : D:\Downloads\VR\wankzvr-semen-demons-smartphone-180_180x180_3dh_LR.mp4
Format : MPEG-4
Format profile : Base Media / Version 2
Codec ID : mp42
File size : 5.25 GiB
Duration : 1h 32mn
Overall bit rate mode : Variable
Overall bit rate : 8 102 Kbps
Writing application : Lavf57.82.102

Video
ID : 1
Format : AVC
Format/Info : Advanced Video Codec
Format profile : [email protected]
Format settings, CABAC : Yes
Format settings, ReFrames : 2 frames
Format settings, GOP : M=3, N=90
Codec ID : avc1
Codec ID/Info : Advanced Video Coding
Duration : 1h 32mn
Bit rate mode : Variable
Bit rate : 8 000 Kbps
Width : 2 160 pixels
Height : 1 080 pixels
Display aspect ratio : 2.000
Frame rate mode : Constant
Frame rate : 59.940 fps
Color space : YUV
Chroma subsampling : 4:2:0
Bit depth : 8 bits
Scan type : Progressive
Bits/(Pixel*Frame) : 0.057
Stream size : 5.16 GiB (98%)
Language : English
Tagged date : UTC 2017-10-31 07:20:24

Audio
ID : 2
Format : AAC
Format/Info : Advanced Audio Codec
Format profile : LC
Codec ID : 40
Duration : 1h 32mn
Source duration : 1h 32mn
Bit rate mode : Constant
Bit rate : 128 Kbps
Channel(s) : 2 channels
Channel positions : Front: L R
Sampling rate : 48.0 KHz
Compression mode : Lossy
Stream size : 84.9 MiB (2%)
Source stream size : 84.9 MiB (2%)
Language : English
Tagged date : UTC 2017-10-31 07:20:24


Трекер:  [ 19-Фев-2018 00:20 ]

  

Скачать .torrent

Размер .torrent файла 13 KB


Размер: 5.25 GB
Хэш (hash) релиза: 66edcb9ec205a2d0ad04e04caee122a0fe74cbe0

Еще никто не оставлял запись к записи скачать торрент [WankzVR.com] Audrey Royal, Felicity Feline, Franchezca Valentina, Gia Paige, Gina Valentina, Jennifer White, Moka Mora . Будь первым!

!Обратная связь