polkapatti | Alex, Inc. | 嫐~ドS女子校生に輪姦される僕~

Скачать порно через торрент [MilfVR.com] Katie Morgan UnionPeer.org бесплатно онлайн HD качество

Скачать новое порно 2015, 2014 новинки через торрент UnionPeer.org

Порно торрент бесплатно ЮнионПир.орг

Статистика раздачи
Размер:  5.28 GB   |    Зарегистрирован:  6 месяцев   |    .torrent скачан:  87 раз   |   
Раздают:  1  
   
загрузка...
 
Автор Сообщение

Galfimbul

avatar Galfimbul




Имя актрисы: Katie Morgan
Название ролика: Sponge Bath
Сайт: MilfVR.com

Год производства: 2017 г.
Жанр: Big Tits, Blonde, Blowjob, Cowgirl, Cum on Stomach, Deep Throat, Doggy Style, Kissing, MILF, Missionary, Reverse Cowgirl, Titty Fucking, VR
Продолжительность: 00:54:07

Описание: You've had a near-death experience and all of a sudden your reality seems a little brighter. It will be a long and hard road to recovery but the very dedicated and sexy nurse, Katie Morgan will get you back on your feet again. Katie applies her medical knowledge and every asset at her disposal to make you feel better. She takes her Hippocratic Oath seriously and strips down to reveal what's under her uniform. Give Katie your dick and 10 cc's of cum stat!

Тип HD видео: 1600p
Тип устройства: Samsung Gear VR
Тип 3D: SideBySide
Формат видео: MP4
Видео: AVC, 3200x1600, 59.940 fps, 13.6 Mbps
Аудио: AAC LC, 48.0 KHz, 2 ch, 320 Kbps, VBR

General
Complete name : milfvr-sponge-bath-gearvr-180_180x180_3dh_LR.mp4
Format : MPEG-4
Codec ID : M4V
File size : 5.28 GiB
Duration : 54mn 7s
Overall bit rate mode : Variable
Overall bit rate : 14.0 Mbps
Encoded date : UTC 2017-09-27 18:37:37
Tagged date : UTC 2017-09-27 18:37:37
Video
ID : 1
Format : AVC
Format/Info : Advanced Video Codec
Format profile : [email protected]
Format settings, CABAC : Yes
Format settings, ReFrames : 2 frames
Format settings, GOP : M=3, N=90
Codec ID : avc1
Codec ID/Info : Advanced Video Coding
Duration : 54mn 7s
Bit rate mode : Variable
Bit rate : 13.6 Mbps
Maximum bit rate : 15.4 Mbps
Width : 3 200 pixels
Height : 1 600 pixels
Display aspect ratio : 2.000
Frame rate mode : Constant
Frame rate : 59.940 fps
Color space : YUV
Chroma subsampling : 4:2:0
Bit depth : 8 bits
Scan type : Progressive
Bits/(Pixel*Frame) : 0.044
Stream size : 5.16 GiB (98%)
Encoded date : UTC 2017-09-27 18:37:37
Tagged date : UTC 2017-09-27 18:37:37
Audio
ID : 2
Format : AAC
Format/Info : Advanced Audio Codec
Format profile : LC
Codec ID : 40
Duration : 54mn 7s
Bit rate mode : Variable
Bit rate : 320 Kbps
Maximum bit rate : 323 Kbps
Channel(s) : 2 channels
Channel positions : Front: L R
Sampling rate : 48.0 KHz
Compression mode : Lossy
Stream size : 123 MiB (2%)
Encoded date : UTC 2017-09-27 18:37:37
Tagged date : UTC 2017-09-27 18:37:37


Трекер:  [ 18-Фев-2018 16:40 ]

  

Скачать .torrent

Размер .torrent файла 13 KB


Размер: 5.28 GB
Хэш (hash) релиза: ed9e5a4b67cb395bfa10b938986d2c823ff4cb07

Еще никто не оставлял запись к записи скачать торрент [MilfVR.com] Katie Morgan . Будь первым!

!Обратная связь