IMDb: 7.2 HD LEGO DC Comics Super Heroes: Aquaman - Rage of Atlantis | Agenci T.A.R.C.Z.Y. / Agents of S.H.I.E.L.D. | Chapter 197: Prison Visit

Скачать через торрент Мифы Фильм бесплатно в хорошем качестве torrent

Скачивайте на UnionPeer.org фильмы через торрент без регистрации. Новинки кино в хорошем качестве через торрент. На UnionPeer.org можно скачать через торрент фильмы 2014 и 2015 годов. Самые новые фильмы.

Скачать торрент Мифы бесплатно через .torrent фильм мультфильм сериал

Статистика раздачи
Размер:  1.46 GB   |    Зарегистрирован:  6 месяцев   |    .torrent скачан:  100 раз   |   
Раздают:  1  
   
загрузка...
 
Автор Сообщение

Galfimbul

avatar Galfimbul


Мифы

Жанр: комедия
Год выпуска: 2017
Продолжительность: 01:33:19

Режиссёр: Александр Молочников

В ролях: Яннис Пападопулос, Паулина Андреева, Сергей Безруков, Виктория Исакова, Ирина Розанова, Павел Ворожцов, Фёдор Бондарчук, Максим Суханов, Милош Бикович, Ксения Раппопорт, Игорь Верник, Вадим Верник, Андрей Смоляков, Надежда Маркина, Иван Ургант, Светлана Устинова, Алексей Агранович, Рената Пиотровски, Михаил Рахлин, Ирина Пегова
Описание: Последняя надежда русского кино, продюсер и режиссер Федор, торчит денег за музыкальный клип браткам из 90-х. Артист Сергей сыграл всех от Иисуса Христа до белочки. У Сергея кончились роли, он в депрессии, и не знает, как жить дальше. Телеведущий страны номер один, Иван, не может перестать шутить в обычной жизни. Девушка Ивана не понимает, почему он смешит ее за завтраком, в постели и даже на похоронах. Ничего не напоминает?
Нищий иностранец по чистой случайности попадает в самую гущу жизни богатых и знаменитых. Выясняется, что все наши представления о жизни звезд — мифы. На самом деле все гораздо хуже. Пытаясь помочь звездам решить их проблемы, наш герой влюбляется в жену Большого градоначальника и решает сделать все, чтобы похитить ее с Московского Олимпа.

Sample

Качество видео: WEB-DLRip
Формат видео: AVI

Видео: 720x304 (2.37:1), 23.976 fps, XviD build 50 ~1847 kbps avg, 0.35 bit/pixel
Аудио: 48 kHz, AC3 Dolby Digital, 3/2 (L,C,R,l,r) + LFE ch, ~384 kbps
General
Complete name : D:\Мифы 2017 WEB-DLRip.avi
Format : AVI
Format/Info : Audio Video Interleave
File size : 1.46 GiB
Duration : 1h 33mn
Overall bit rate : 2 241 Kbps
Writing application : VirtualDubMod 1.5.10.3 | www.virtualdub-fr.org || (build 2550/release)
Writing library : VirtualDubMod build 2550/release

Video
ID : 0
Format : MPEG-4 Visual
Format profile : Advanced [email protected]
Format settings, BVOP : 1
Format settings, QPel : No
Format settings, GMC : No warppoints
Format settings, Matrix : Default (MPEG)
Codec ID : XVID
Codec ID/Hint : XviD
Duration : 1h 33mn
Bit rate : 1 848 Kbps
Width : 720 pixels
Height : 304 pixels
Display aspect ratio : 2.35:1
Frame rate : 23.976 fps
Color space : YUV
Chroma subsampling : 4:2:0
Bit depth : 8 bits
Scan type : Progressive
Compression mode : Lossy
Bits/(Pixel*Frame) : 0.352
Stream size : 1.20 GiB (82%)
Writing library : XviD 1.2.1 (UTC 2008-12-04)

Audio
ID : 1
Format : AC-3
Format/Info : Audio Coding 3
Mode extension : CM (complete main)
Format settings, Endianness : Big
Codec ID : 2000
Duration : 1h 33mn
Bit rate mode : Constant
Bit rate : 384 Kbps
Channel count : 6 channels
Channel positions : Front: L C R, Side: L R, LFE
Sampling rate : 48.0 KHz
Bit depth : 16 bits
Compression mode : Lossy
Stream size : 256 MiB (17%)
Alignment : Split accross interleaves
Interleave, duration : 42 ms (1.00 video frame)
Interleave, preload duration : 500 ms


Трекер:  [ 14-Фев-2018 14:24 ]

  

Скачать .torrent

Размер .torrent файла 15 KB


Размер: 1.46 GB
Хэш (hash) релиза: 60e6f9ccba26dee1699419fe3ad0ea56d4c56b91
Подписка на обновления:

Торренты, похожие на Мифы скачать торрент

Форум Название Автор Размер S L Добавлен
Документальные фильмы и телепередачи ·· Мифы о Великой войне. Миф первый:"Россия разжигатель войны". (Косинов А.А.) [2013, документальный, DVDRip] Galfimbul 887062840846 MB 0 0 1362252848

22:34

2-Мар-13

Документальные фильмы и телепередачи ·%· Мифы и чудовища / Myths & Monsters (Даниэль Контур / Daniel Kontur) [2017, Документальный, фэнтези, WEB-DL 1080p] Galfimbul 1454514196413.55 GB 0 0 1532459186

22:06

24-Июл-18

Документальные фильмы и телепередачи ·%· Как убивали Павлика. История одного мифа (Григорий Диккерт) [2004, Россия, Документальный, биография, WEB-DLRip] Galfimbul 650944512621 MB 0 0 1530830538

01:42

6-Июл-18

Документальные фильмы и телепередачи ·%· History. Битвы богов (8 серий из 10) / Clash of the Gods (Кристофер Кассель /Christopher Cassel, Джессика Конвэй /Jessica Conway) [2009, Документальный, мифы, история, эпос, HDTVRip] (Обновляемая) Galfimbul 55932211205.21 GB 0 0 1529752337

14:12

23-Июн-18

Документальные фильмы и телепередачи ·%· History. Реальные монстры (3 серии из 4) / True Monsters [2015, Документальный, мифы, история, HDTVRip] (Обновляемая) Galfimbul 18949099521.76 GB 0 0 1529746928

12:42

23-Июн-18

Документальные фильмы и телепередачи ·· History. Реальные монстры (3 серии из 4) / True Monsters [2015, Документальный, мифы, история, HDTVRip 720p] (Обновляемая) Galfimbul 39451062593.67 GB 0 0 1528707980

12:06

11-Июн-18

Документальные фильмы и телепередачи ·· History. Битвы богов (7 серий из 10) / Clash of the Gods (Кристофер Кассель /Christopher Cassel, Джессика Конвэй /Jessica Conway) [2009, Документальный, мифы, история, эпос, HDTVRip 720p] (Обновляемая) Galfimbul 102015813429.5 GB 0 0 1528542392

14:06

9-Июн-18

Документальные фильмы и телепередачи ·· Че Гевара: под маской мифа / Che Guevara Beyond the Legend / Che Guevara: Beyond the Myth [2017, Документальный, познавательный, биография, история, HDTVRip 720p] Galfimbul 17251658121.61 GB 0 0 1525536391

19:06

5-Май-18

Российские фильмы до 2016 ·· Мифы (Александр Молочников) [2017, Россия, комедия, WEB-DL 1080p] Original Rus Galfimbul 34646223213.23 GB 0 0 1519320994

20:36

22-Фев-18

Документальные фильмы и телепередачи ·· Мифы и чудовища ( 6 серий из 6) / Myths & Monsters (Даниэль Контур) [2017, Документальный, исследования, мифология, HDTVRip 720p] Galfimbul 83765101757.8 GB 0 0 1518979410

21:43

18-Фев-18

Российские фильмы 2016-2018 (Новинки русского кино) ·· Мифы (Александр Молочников) [2017 г., Комедия, WEB-DLRip] iTunes Galfimbul 782578518746 MB 0 0 1518794434

18:20

16-Фев-18

Российские фильмы до 2016 ·· Мифы (Александр Молочников) [2017, комедия, WEB-DLRip] Galfimbul 780664832745 MB 0 0 1518710393

18:59

15-Фев-18

Российские фильмы 2016-2018 (Новинки русского кино) ·· Мифы (Александр Молочников) [2017 г., Комедия, WEB-DLRip] iTunes Galfimbul 15685550081.46 GB 0 0 1518593416

10:30

14-Фев-18

Российские фильмы 2016-2018 (Новинки русского кино) ·· Мифы (Александр Молочников) [2017 г., Комедия, WEB-DL 720p] Galfimbul 31843880352.97 GB 0 0 1514483873

20:57

28-Дек-17

Российские фильмы 2016-2018 (Новинки русского кино) ·· Мифы (Александр Молочников) [2017 г., Комедия, WEB-DL 1080p] Galfimbul 37655658163.51 GB 0 0 1514483870

20:57

28-Дек-17

Российские фильмы 2016-2018 (Новинки русского кино) ·· Мифы (Александр Молочников) [2017 г., Комедия, WEB-DLRip] Galfimbul 14679244801.37 GB 0 0 1514483869

20:57

28-Дек-17

Российские фильмы 2016-2018 (Новинки русского кино) ·· Мифы (Александр Молочников) [2017 г., Комедия, TS 720p] Galfimbul 22791148782.12 GB 0 0 1510994747

11:45

18-Ноя-17

Российские фильмы 2016-2018 (Новинки русского кино) ·· Мифы (Александр Молочников) [2017 г., Комедия, TS] Galfimbul 14676705281.37 GB 0 0 1510994746

11:45

18-Ноя-17

Документальные фильмы и телепередачи ·· Кастро. Человек и миф / Castro. Man and Myth (Philip Selkirk) [2004, Документальный, история, HDTV 1080i] Galfimbul 33375368553.11 GB 0 0 1510810963

08:42

16-Ноя-17

Еще никто не оставлял запись к записи скачать торрент Мифы . Будь первым!

!Обратная связь