Lucknow Central 2017 LIMITED BDRip x264-LoveGuru[EtMovies] | The Inerasable 2015 DVDRip x264-REGRET[EtMovies] | view all

Скачать через торрент Лига справедливости Justice League бесплатно русская версия torrent активатор

Если у вас наблюдаются проблемы со скриншотами, переходом по ссылками, скачиванием торрентов - проблемы в блокировщике рекламы AdBlock. #хорошегоДня!


Статистика раздачи
Размер:  4.42 GB   |    Зарегистрирован:  5 дней   |    .torrent скачан:  32 раза   |   
Раздают:  2  
   
Загрузка...
 
Автор Сообщение

Galfimbul

avatar Galfimbul


Лига справедливости / Justice League
«Нельзя спасти мир в одиночку»

6.451 / 10 6.90 / 10
Год выпуска: 2017
Страна: США, Великобритания, Канада
Жанр: Фантастика, фэнтези, боевик, приключения
Продолжительность: 02:00:00

Перевод: Дублированный (iTunes)
Оригинальная аудиодорожка: Есть
Cубтитры: Русские форсированные, Украинские форсированные, Русские, Английские
Режиссёр: Зак Снайдер
Сценарий: Крис Террио, Боб Кейн, Джек Кирби
Продюсер: Бен Аффлек, Мэдисон Эйнли, Джон Берг
Оператор: Фабиан Вагнер
Композитор: Дэнни Элфман
Художник: Патрик Татопулос, Лорин Флемминг, Joseph Hiura
Монтаж: Дэвид Бреннер, Ричард Пирсон, Мартин Уолш
В ролях: Бен Аффлек, Генри Кавилл, Эми Адамс, Галь Гадот, Эзра Миллер, Джейсон Момоа, Рэй Фишер, Джереми Айронс, Дайан Лэйн, Конни Нильсен

Бюджет: $300 000 000
Сборы в США: $228 574 516
Сборы в мире: + $428 000 000 = $656 574 516
Сборы в России: $10 910 405

Мировая премьера: 13 ноября 2017
Премьера (РФ): 16 ноября 2017, «Каро-Премьер»

Цифровой релиз: 14 февраля 2018, «Warner Bros.»

Описание: Брюс Уэйн, вдохновленный самопожертвованием Супермена, вновь обретает веру в человечество. Он заручается поддержкой новой союзницы, Дианы Принс, чтобы сразиться с еще более могущественным противником. Бэтмен и Чудо-Женщина быстро набирают команду сверхлюдей для борьбы с пробудившейся угрозой. Но несмотря на уникальный состав отряда супергероев — Бэтмен, Чудо-Женщина, Аквамэн, Киборг и Флэш, — быть может, спасать планету от вторжения катастрофических масштабов уже слишком поздно.
Качество исходника: WEB-DL 720p (NNMClub)
Качество: WEB-DL
Тип: HD (720p)
Контейнер: M4V
Видео: H.264, 1280x720, 16:9, 4 021 Kbps, 23.976 fps

Аудио 1: Русский/Дублированный (iTunes), AAC / 2.0 / 160 Kbps / 48.0 KHz
Аудио 2: Английский/Оригинальная дорожка , AAC / 2.0 / 160 Kbps / 48.0 KHz
Аудио 3: Украинский/Дублированный (iTunes), AAC / 2.0 / 160 Kbps / 48.0 KHz
Аудио 4: Русский/Дублированный (iTunes), AC-3 / 5.1 / 384 Kbps / 48.0 KHz
Аудио 5: Английский/Оригинальная дорожка , AC-3 / 5.1 / 384 Kbps / 48.0 KHz

Субтитры 1: Русские форсированные
Субтитры 2: Украинские форсированные
Субтитры 3: Русские полные
Субтитры 4: Английские полные
Sort Name: Justice League
XID: Apple:vendor_id:2017-424994
contentID: 1305325242
Copyright: © 2017 Warner Bros. Entertainment Inc. and RatPac-Dune Entertainment Inc. JUSTICE LEAGUE and all related characters and elements are trademarks of DC Comics.
Screenwriters: Крис Террио, Джосс Уидон, Джерри Сигел
Producers: Бен Аффлек, Мэдисон Эйнли, Джон Берг
Director: Зак Снайдер
Cast: Бен Аффлек, Генри Кавилл, Эми Адамс, Галь Гадот, Эзра Миллер, Джейсон Момоа, Рэй Фишер, Джереми Айронс, Дайан Лэйн, Конни Нильсен
Studio: Warner Bros.
Rating Annotation: Rated PG-13 for sequences of sci-fi violence and action.
Rating: 4
Long Description: Брюс Уэйн, вдохновленный самопожертвованием Супермена, вновь обретает веру в человечество. Он заручается поддержкой новой союзницы, Дианы Принс, чтобы сразиться с еще более могущественным противником. Бэтмен и Чудо-Женщина быстро набирают команду сверхлюдей для борьбы с пробудившейся угрозой. Но несмотря на уникальный состав отряда супергероев - Бэтмен, Чудо-Женщина, Аквамэн, Киборг и Флэш, - быть может, спасать планету от вторжения катастрофических масштабов уже слишком поздно.
Description: Брюс Уэйн, вдохновленный самопожертвованием Супермена, вновь обретает веру в человечество. Он заручается поддержкой новой союзницы, Дианы Принс, чтобы сразиться с еще более могущественным противником...
Release Date: 2017-11-13T08:00:00Z
Genre: Action & Adventure
Artist: Zack Snyder
Name: Justice League
General
Complete name : /Users/imac/HandBrake/Justice.League.WEB-DL.720p.m4v
Format : MPEG-4
Codec ID : M4V
File size : 4.42 GiB
Duration : 2h 0mn
Overall bit rate mode : Variable
Overall bit rate : 5 271 Kbps
Movie name : Justice League
Performer : Zack Snyder
Director : Зак Снайдер
Actor : Бен Аффлек / Генри Кавилл / Эми Адамс / Галь Гадот / Эзра Миллер / Джейсон Момоа / Рэй Фишер / Джереми Айронс / Дайан Лэйн / Конни Нильсен
Screenplay by : Крис Террио / Джосс Уидон / Джерри Сигел
Producer : Бен Аффлек / Мэдисон Эйнли / Джон Берг
Production studio : Warner Bros.
Genre : Action & Adventure
ContentType : Short Film
Description : Брюс Уэйн, вдохновленный самопожертвованием Супермена, вновь обретает веру в человечество. Он заручается поддержкой новой союзницы, Дианы Принс, чтобы сразиться с еще более могущественным противником...
Recorded date : UTC 2017-11-13 08:00:00
Encoded date : UTC 2018-02-14 10:18:06
Tagged date : UTC 2018-02-14 10:19:59
Copyright : © 2017 Warner Bros. Entertainment Inc. and RatPac-Dune Entertainment Inc. JUSTICE LEAGUE and all related characters and elements are trademarks of DC Comics.
Cover : Yes
Rating : None
Title/Sort : Justice League
LongDescription : Брюс Уэйн, вдохновленный самопожертвованием Супермена, вновь обретает веру в человечество. Он заручается поддержкой новой союзницы, Дианы Принс, чтобы сразиться с еще более могущественным противником. Бэтмен и Чудо-Женщина быстро набирают команду сверхлюдей для борьбы с пробудившейся угрозой. Но несмотря на уникальный состав отряда супергероев - Бэтмен, Чудо-Женщина, Аквамэн, Киборг и Флэш, - быть может, спасать планету от вторжения катастрофических масштабов уже слишком поздно.
HDVideo : Yes
AppleStoreCatalogID : 1305325242
Vendor : Apple:vendor_id:2017-424994
ContentRating : mpaa|PG-13|300|Rated PG-13 for sequences of sci-fi violence and action.

Video #1
ID : 1
Format : AVC
Format/Info : Advanced Video Codec
Format profile : [email protected]
Format settings, CABAC : No
Format settings, ReFrames : 2 frames
Codec ID : avc1
Codec ID/Info : Advanced Video Coding
Duration : 2h 0mn
Bit rate : 4 021 Kbps
Width : 1 280 pixels
Height : 720 pixels
Display aspect ratio : 16:9
Frame rate mode : Variable
Frame rate : 23.976 fps
Minimum frame rate : 23.810 fps
Maximum frame rate : 24.390 fps
Color space : YUV
Chroma subsampling : 4:2:0
Bit depth : 8 bits
Scan type : Progressive
Bits/(Pixel*Frame) : 0.182
Stream size : 3.37 GiB (76%)
Title : Main Program
Language : English
Encoded date : UTC 2018-02-14 10:18:06
Tagged date : UTC 2018-02-14 10:19:16
Color range : Limited
Color primaries : BT.709
Transfer characteristics : BT.709
Matrix coefficients : BT.709

Video #2
ID : 12
Format : JPEG
Codec ID : jpeg
Duration : 2h 0mn
Bit rate mode : Variable
Bit rate : 373 bps
Width : 640 pixels
Height : 360 pixels
Display aspect ratio : 16:9
Frame rate mode : Constant
Frame rate : 0.001 fps
Color space : YUV
Chroma subsampling : 4:2:0
Bit depth : 8 bits
Compression mode : Lossy
Bits/(Pixel*Frame) : 1.619
Stream size : 546 KiB (0%)
Title : Chapter Images
Language : English
Encoded date : UTC 2018-02-14 10:19:19
Tagged date : UTC 2018-02-14 10:19:20

Audio #1
ID : 2
Format : AAC
Format/Info : Advanced Audio Codec
Format profile : LC
Codec ID : 40
Duration : 2h 0mn
Source duration : 2h 0mn
Bit rate mode : Variable
Bit rate : 157 Kbps
Maximum bit rate : 223 Kbps
Channel(s) : 2 channels
Channel positions : Front: L R
Sampling rate : 48.0 KHz
Compression mode : Lossy
Stream size : 135 MiB (3%)
Source stream size : 135 MiB (3%)
Title : Russian Stereo
Language : Russian
Encoded date : UTC 2018-02-14 10:18:07
Tagged date : UTC 2018-02-14 10:18:15

Audio #2
ID : 3
Format : AAC
Format/Info : Advanced Audio Codec
Format profile : LC
Codec ID : 40
Duration : 2h 0mn
Source duration : 2h 0mn
Bit rate mode : Variable
Bit rate : 157 Kbps
Maximum bit rate : 231 Kbps
Channel(s) : 2 channels
Channel positions : Front: L R
Sampling rate : 48.0 KHz
Compression mode : Lossy
Stream size : 134 MiB (3%)
Source stream size : 134 MiB (3%)
Title : English Stereo
Language : English
Encoded date : UTC 2018-02-14 10:18:07
Tagged date : UTC 2018-02-14 10:18:15

Audio #3
ID : 4
Format : AAC
Format/Info : Advanced Audio Codec
Format profile : LC
Codec ID : 40
Duration : 2h 0mn
Source duration : 2h 0mn
Bit rate mode : Variable
Bit rate : 156 Kbps
Maximum bit rate : 236 Kbps
Channel(s) : 2 channels
Channel positions : Front: L R
Sampling rate : 48.0 KHz
Compression mode : Lossy
Stream size : 134 MiB (3%)
Source stream size : 134 MiB (3%)
Title : Ukrainian Stereo
Language : Ukrainian
Encoded date : UTC 2018-02-14 10:18:07
Tagged date : UTC 2018-02-14 10:18:15

Audio #4
ID : 5
Format : AC-3
Format/Info : Audio Coding 3
Mode extension : CM (complete main)
Format settings, Endianness : Big
Codec ID : ac-3
Duration : 2h 0mn
Bit rate mode : Constant
Bit rate : 384 Kbps
Channel(s) : 6 channels
Channel positions : Front: L C R, Side: L R, LFE
Sampling rate : 48.0 KHz
Bit depth : 16 bits
Compression mode : Lossy
Stream size : 330 MiB (7%)
Title : Russian DD 5.1
Language : Russian
Encoded date : UTC 2018-02-14 10:18:07
Tagged date : UTC 2018-02-14 10:18:15

Audio #5
ID : 6
Format : AC-3
Format/Info : Audio Coding 3
Mode extension : CM (complete main)
Format settings, Endianness : Big
Codec ID : ac-3
Duration : 2h 0mn
Bit rate mode : Constant
Bit rate : 384 Kbps
Channel(s) : 6 channels
Channel positions : Front: L C R, Side: L R, LFE
Sampling rate : 48.0 KHz
Bit depth : 16 bits
Compression mode : Lossy
Stream size : 330 MiB (7%)
Title : English DD 5.1
Language : English
Encoded date : UTC 2018-02-14 10:18:07
Tagged date : UTC 2018-02-14 10:18:15

Text #1
ID : 7
Format : Timed Text
Muxing mode : sbtl
Codec ID : tx3g
Duration : 1h 33mn
Bit rate mode : Variable
Bit rate : 2 bps
Stream size : 1.09 KiB (0%)
Title : Russian forced
Language : Russian
Encoded date : UTC 2018-02-14 10:18:07
Tagged date : UTC 2018-02-14 10:18:13

Text #2
ID : 8
Format : Timed Text
Muxing mode : sbtl
Codec ID : tx3g
Duration : 1h 40mn
Bit rate mode : Variable
Bit rate : 2 bps
Stream size : 1.31 KiB (0%)
Title : Ukrainian forced
Language : Ukrainian
Encoded date : UTC 2018-02-14 10:18:07
Tagged date : UTC 2018-02-14 10:18:13

Text #3
ID : 9
Format : Timed Text
Muxing mode : sbtl
Codec ID : tx3g
Duration : 1h 59mn
Bit rate mode : Variable
Bit rate : 76 bps
Stream size : 66.6 KiB (0%)
Title : Russian full
Language : Russian
Encoded date : UTC 2018-02-14 10:18:07
Tagged date : UTC 2018-02-14 10:18:15

Text #4
ID : 10
Format : Timed Text
Muxing mode : sbtl
Codec ID : tx3g
Duration : 1h 50mn
Bit rate mode : Variable
Bit rate : 49 bps
Stream size : 39.7 KiB (0%)
Title : English full
Language : English
Encoded date : UTC 2018-02-14 10:18:07
Tagged date : UTC 2018-02-14 10:18:15

Menu #1
00:00:00.000 : 1
00:10:56.000 : 2
00:19:16.000 : 3
00:30:41.000 : 4
00:40:19.000 : 5
00:49:56.000 : 6
01:01:26.000 : 7
01:09:41.000 : 8
01:19:18.000 : 9
01:30:34.000 : 10
01:40:33.000 : 11
01:48:42.000 : 12

Menu #2
ID : 11
Codec ID : text
Duration : 2h 0mn
Language : English
Encoded date : UTC 2018-02-14 10:19:16
Tagged date : UTC 2018-02-14 10:19:16
00:00:00.000 : 1
00:10:56.000 : 2
00:19:16.000 : 3
00:30:41.000 : 4
00:40:19.000 : 5
00:49:56.000 : 6
01:01:26.000 : 7
01:09:41.000 : 8
01:19:18.000 : 9
01:30:34.000 : 10
01:40:33.000 : 11
01:48:42.000 : 12
Bit rate mode : VBR

Релиз подготовлен для просмотра на Apple TV, iPad, iPhone, iPod Touch.
Для просмотра данного релиза на компьютере с ОС Windows рекомендуется использовать VLC media player

Трекер:  [ 14-Фев-2018 13:42 ]

  

Скачать .torrent

Размер .torrent файла 44 KB


Размер: 4.42 GB
Хэш (hash) релиза: 23af41bbac64b2a55c4f8292479ac40f4d4f2ee7

Торренты, похожие на Лига справедливости Justice League скачать торрент

Форум Название Автор Размер S L Добавлен
Видео (iPhone/iPod Touch/iPad) ·· [iPad] Лига справедливости / Justice League (Зак Снайдер / Zack Snyder ) [2017, США, Великобритания, Канада , Фантастика, фэнтези, боевик, приключения, WEB-DLRip, SD (576p)] DUB + Original + sub (rus, ukr, eng) Galfimbul 23299123892.17 GB 0 0 1518707569

18:12

15-Фев-18

Видео (iPhone/iPod Touch/iPad) ·· Лига справедливости / Justice League (Зак Снайдер / Zack Snyder ) [2017, США, Великобритания, Канада , Фантастика, фэнтези, боевик, приключения, WEB-DLRip, SD (480p)] DUB + Original + sub (rus, ukr, eng) Galfimbul 15187436421.41 GB 0 0 1518707557

18:12

15-Фев-18

Видео (iPhone/iPod Touch/iPad) ·· [ATV3] Лига справедливости / Justice League (Зак Снайдер / Zack Snyder ) [2017, США, Великобритания, Канада , Фантастика, фэнтези, боевик, приключения, WEB-DL, AMZN Version, HD (1080p)] DUB + Original + sub (rus, ukr, eng) Galfimbul 1131980026010.54 GB 0 0 1518694944

14:42

15-Фев-18

Видео (iPhone/iPod Touch/iPad) ·· [ATV3] Лига справедливости / Justice League (Зак Снайдер / Zack Snyder ) [2017, США, Великобритания, Канада , Фантастика, фэнтези, боевик, приключения, WEB-DL, HD (1080p)] DUB + Original + sub (rus, ukr, eng) Galfimbul 57494555685.35 GB 0 0 1518601345

12:42

14-Фев-18

Видео (iPhone/iPod Touch/iPad) ·· [iPad] LEGO супергерои DC: Лига справедливости против Лиги Бизарро / Lego DC Comics Super Heroes: Justice League vs. Bizarro League (Брэндон Виетти / Brandon Vietti ) [2015, США, Мультфильм, BDRip, SD (576p)] 2 х MVO + Original Eng + rus, eng sub Galfimbul 979825455934 MB 0 0 1434463825

17:10

16-Июн-15

Видео (iPhone/iPod Touch/iPad) ·· [iPad] Лига справедливости: Боги и монстры / Justice League: Gods and Monsters (Сэм Лью / Sam Liu ) [2015, США, Мультфильм, боевик, BDRip, SD (576p)] DVO + Original + sub (rus, eng) Galfimbul 14327690261.33 GB 0 0 1441921739

00:48

11-Сен-15

Видео (iPhone/iPod Touch/iPad) ·· Лига справедливости: Боги и монстры / Justice League: Gods and Monsters (Сэм Лью / Sam Liu ) [2015, США, Мультфильм, боевик, BDRip, HD (720p)] DVO + Original + sub (rus, eng) Galfimbul 28933742572.69 GB 0 0 1441921244

00:40

11-Сен-15

Видео (iPhone/iPod Touch/iPad) ·· [ATV3] Лига справедливости: Боги и монстры / Justice League: Gods and Monsters (Сэм Лью / Sam Liu ) [2015, США, Мультфильм, боевик, BDRip, HD (1080p)] DVO + Original + sub (rus, eng) Galfimbul 46014170054.29 GB 0 0 1441921152

00:39

11-Сен-15

Видео (Фильмы/Клипы) ·· [MULT] Лига справедливости: Боги и монстры / Justice League: Gods and Monsters (Сэм Лью / Sam Liu) [2015, США, фантастика, боевик, комикс, HDRip][MP4, 480x] DVO Galfimbul 366930139350 MB 0 0 1441920804

00:33

11-Сен-15

Видео (iPhone/iPod Touch/iPad) ·· Лига справедливости: Парадокс источника конфликта / Justice League: The Flashpoint Paradox (Джей Олива / Jay Oliva) [2013, США, мультфильм, фантастика, фэнтези, боевик, HDRip, 480p] MVO Arasi Project + Original + sub (rus, eng) Galfimbul 11346363391.06 GB 0 0 1417547049

22:04

2-Дек-14

Еще никто не оставлял запись к записи скачать торрент Лига справедливости Justice League . Будь первым!

!Обратная связь