Fantasty | The Gunman | Allan Corduner

Скачать через торрент [ATV3] Лига справедливости Justice League бесплатно русская версия torrent активатор

Статистика раздачи
Размер:  5.35 GB   |    Зарегистрирован:  3 месяца 8 дней   |    .torrent скачан:  44 раза   |   
Раздают:  1  
   
загрузка...
 
Автор Сообщение

Galfimbul

avatar Galfimbul


Лига справедливости / Justice League
«Нельзя спасти мир в одиночку»

6.451 / 10 6.90 / 10
Год выпуска: 2017
Страна: США, Великобритания, Канада
Жанр: Фантастика, фэнтези, боевик, приключения
Продолжительность: 02:00:00

Перевод: Дублированный (iTunes)
Оригинальная аудиодорожка: Есть
Cубтитры: Русские форсированные, Украинские форсированные, Русские, Английские
Режиссёр: Зак Снайдер
Сценарий: Крис Террио, Боб Кейн, Джек Кирби
Продюсер: Бен Аффлек, Мэдисон Эйнли, Джон Берг
Оператор: Фабиан Вагнер
Композитор: Дэнни Элфман
Художник: Патрик Татопулос, Лорин Флемминг, Joseph Hiura
Монтаж: Дэвид Бреннер, Ричард Пирсон, Мартин Уолш
В ролях: Бен Аффлек, Генри Кавилл, Эми Адамс, Галь Гадот, Эзра Миллер, Джейсон Момоа, Рэй Фишер, Джереми Айронс, Дайан Лэйн, Конни Нильсен

Бюджет: $300 000 000
Сборы в США: $228 574 516
Сборы в мире: + $428 000 000 = $656 574 516
Сборы в России: $10 910 405

Мировая премьера: 13 ноября 2017
Премьера (РФ): 16 ноября 2017, «Каро-Премьер»

Цифровой релиз: 14 февраля 2018, «Warner Bros.»

Описание: Брюс Уэйн, вдохновленный самопожертвованием Супермена, вновь обретает веру в человечество. Он заручается поддержкой новой союзницы, Дианы Принс, чтобы сразиться с еще более могущественным противником. Бэтмен и Чудо-Женщина быстро набирают команду сверхлюдей для борьбы с пробудившейся угрозой. Но несмотря на уникальный состав отряда супергероев — Бэтмен, Чудо-Женщина, Аквамэн, Киборг и Флэш, — быть может, спасать планету от вторжения катастрофических масштабов уже слишком поздно.
Качество исходника: WEB-DL 1080p (NNMClub)
Качество: WEB-DL
Тип: HD (1080p)
Контейнер: M4V
Видео: H.264, 1920x1080, 16:9, 5 137 Kbps, 23.976 fps

Аудио 1: Русский/Дублированный (iTunes), AAC / 2.0 / 160 Kbps / 48.0 KHz
Аудио 2: Английский/Оригинальная дорожка , AAC / 2.0 / 160 Kbps / 48.0 KHz
Аудио 3: Украинский/Дублированный (iTunes), AAC / 2.0 / 160 Kbps / 48.0 KHz
Аудио 4: Русский/Дублированный (iTunes), AC-3 / 5.1 / 384 Kbps / 48.0 KHz
Аудио 5: Английский/Оригинальная дорожка , AC-3 / 5.1 / 384 Kbps / 48.0 KHz

Субтитры 1: Русские форсированные
Субтитры 2: Украинские форсированные
Субтитры 3: Русские полные
Субтитры 4: Английские полные
Sort Name: Justice League
XID: Apple:vendor_id:2017-424994
contentID: 1305325242
Copyright: © 2017 Warner Bros. Entertainment Inc. and RatPac-Dune Entertainment Inc. JUSTICE LEAGUE and all related characters and elements are trademarks of DC Comics.
Screenwriters: Крис Террио, Джосс Уидон, Джерри Сигел
Producers: Бен Аффлек, Мэдисон Эйнли, Джон Берг
Director: Зак Снайдер
Cast: Бен Аффлек, Генри Кавилл, Эми Адамс, Галь Гадот, Эзра Миллер, Джейсон Момоа, Рэй Фишер, Джереми Айронс, Дайан Лэйн, Конни Нильсен
Studio: Warner Bros.
Rating Annotation: Rated PG-13 for sequences of sci-fi violence and action.
Rating: 4
Long Description: Брюс Уэйн, вдохновленный самопожертвованием Супермена, вновь обретает веру в человечество. Он заручается поддержкой новой союзницы, Дианы Принс, чтобы сразиться с еще более могущественным противником. Бэтмен и Чудо-Женщина быстро набирают команду сверхлюдей для борьбы с пробудившейся угрозой. Но несмотря на уникальный состав отряда супергероев - Бэтмен, Чудо-Женщина, Аквамэн, Киборг и Флэш, - быть может, спасать планету от вторжения катастрофических масштабов уже слишком поздно.
Description: Брюс Уэйн, вдохновленный самопожертвованием Супермена, вновь обретает веру в человечество. Он заручается поддержкой новой союзницы, Дианы Принс, чтобы сразиться с еще более могущественным противником...
Release Date: 2017-11-13T08:00:00Z
Genre: Action & Adventure
Artist: Zack Snyder
Name: Justice League
General
Complete name : /Users/imac/HandBrake/Justice.League.WEB-DL.1080p.m4v
Format : MPEG-4
Codec ID : M4V
File size : 5.35 GiB
Duration : 2h 0mn
Overall bit rate mode : Variable
Overall bit rate : 6 388 Kbps
Movie name : Justice League
Performer : Zack Snyder
Director : Зак Снайдер
Actor : Бен Аффлек / Генри Кавилл / Эми Адамс / Галь Гадот / Эзра Миллер / Джейсон Момоа / Рэй Фишер / Джереми Айронс / Дайан Лэйн / Конни Нильсен
Screenplay by : Крис Террио / Джосс Уидон / Джерри Сигел
Producer : Бен Аффлек / Мэдисон Эйнли / Джон Берг
Production studio : Warner Bros.
Genre : Action & Adventure
ContentType : Short Film
Description : Брюс Уэйн, вдохновленный самопожертвованием Супермена, вновь обретает веру в человечество. Он заручается поддержкой новой союзницы, Дианы Принс, чтобы сразиться с еще более могущественным противником...
Recorded date : UTC 2017-11-13 08:00:00
Encoded date : UTC 2018-02-14 09:07:50
Tagged date : UTC 2018-02-14 09:13:00
Copyright : © 2017 Warner Bros. Entertainment Inc. and RatPac-Dune Entertainment Inc. JUSTICE LEAGUE and all related characters and elements are trademarks of DC Comics.
Cover : Yes
Rating : None
Title/Sort : Justice League
LongDescription : Брюс Уэйн, вдохновленный самопожертвованием Супермена, вновь обретает веру в человечество. Он заручается поддержкой новой союзницы, Дианы Принс, чтобы сразиться с еще более могущественным противником. Бэтмен и Чудо-Женщина быстро набирают команду сверхлюдей для борьбы с пробудившейся угрозой. Но несмотря на уникальный состав отряда супергероев - Бэтмен, Чудо-Женщина, Аквамэн, Киборг и Флэш, - быть может, спасать планету от вторжения катастрофических масштабов уже слишком поздно.
AppleStoreCatalogID : 1305325242
Vendor : Apple:vendor_id:2017-424994
ContentRating : mpaa|PG-13|300|Rated PG-13 for sequences of sci-fi violence and action.

Video #1
ID : 1
Format : AVC
Format/Info : Advanced Video Codec
Format profile : [email protected]
Format settings, CABAC : Yes
Format settings, ReFrames : 4 frames
Codec ID : avc1
Codec ID/Info : Advanced Video Coding
Duration : 2h 0mn
Bit rate : 5 137 Kbps
Width : 1 920 pixels
Height : 1 080 pixels
Display aspect ratio : 16:9
Frame rate mode : Variable
Frame rate : 23.976 fps
Minimum frame rate : 23.810 fps
Maximum frame rate : 24.390 fps
Color space : YUV
Chroma subsampling : 4:2:0
Bit depth : 8 bits
Scan type : Progressive
Bits/(Pixel*Frame) : 0.103
Stream size : 4.31 GiB (80%)
Title : Main Program
Language : English
Encoded date : UTC 2018-02-14 09:07:50
Tagged date : UTC 2018-02-14 09:11:10
Color range : Limited
Color primaries : BT.709
Transfer characteristics : BT.709
Matrix coefficients : BT.709

Video #2
ID : 12
Format : JPEG
Codec ID : jpeg
Duration : 2h 0mn
Bit rate mode : Variable
Bit rate : 369 bps
Width : 640 pixels
Height : 360 pixels
Display aspect ratio : 16:9
Frame rate mode : Constant
Frame rate : 0.001 fps
Color space : YUV
Chroma subsampling : 4:2:0
Bit depth : 8 bits
Compression mode : Lossy
Bits/(Pixel*Frame) : 1.602
Stream size : 540 KiB (0%)
Title : Chapter Images
Language : English
Encoded date : UTC 2018-02-14 09:11:16
Tagged date : UTC 2018-02-14 09:11:17

Audio #1
ID : 2
Format : AAC
Format/Info : Advanced Audio Codec
Format profile : LC
Codec ID : 40
Duration : 2h 0mn
Source duration : 2h 0mn
Bit rate mode : Variable
Bit rate : 157 Kbps
Maximum bit rate : 223 Kbps
Channel(s) : 2 channels
Channel positions : Front: L R
Sampling rate : 48.0 KHz
Compression mode : Lossy
Stream size : 135 MiB (2%)
Source stream size : 135 MiB (2%)
Title : Russian Stereo
Language : Russian
Encoded date : UTC 2018-02-14 09:07:50
Tagged date : UTC 2018-02-14 09:07:56

Audio #2
ID : 3
Format : AAC
Format/Info : Advanced Audio Codec
Format profile : LC
Codec ID : 40
Duration : 2h 0mn
Source duration : 2h 0mn
Bit rate mode : Variable
Bit rate : 157 Kbps
Maximum bit rate : 231 Kbps
Channel(s) : 2 channels
Channel positions : Front: L R
Sampling rate : 48.0 KHz
Compression mode : Lossy
Stream size : 134 MiB (2%)
Source stream size : 134 MiB (2%)
Title : English Stereo
Language : English
Encoded date : UTC 2018-02-14 09:07:50
Tagged date : UTC 2018-02-14 09:07:56

Audio #3
ID : 4
Format : AAC
Format/Info : Advanced Audio Codec
Format profile : LC
Codec ID : 40
Duration : 2h 0mn
Source duration : 2h 0mn
Bit rate mode : Variable
Bit rate : 156 Kbps
Maximum bit rate : 236 Kbps
Channel(s) : 2 channels
Channel positions : Front: L R
Sampling rate : 48.0 KHz
Compression mode : Lossy
Stream size : 134 MiB (2%)
Source stream size : 134 MiB (2%)
Title : Ukrainian Stereo
Language : Ukrainian
Encoded date : UTC 2018-02-14 09:07:50
Tagged date : UTC 2018-02-14 09:07:56

Audio #4
ID : 5
Format : AC-3
Format/Info : Audio Coding 3
Mode extension : CM (complete main)
Format settings, Endianness : Big
Codec ID : ac-3
Duration : 2h 0mn
Bit rate mode : Constant
Bit rate : 384 Kbps
Channel(s) : 6 channels
Channel positions : Front: L C R, Side: L R, LFE
Sampling rate : 48.0 KHz
Bit depth : 16 bits
Compression mode : Lossy
Stream size : 330 MiB (6%)
Title : Russian DD 5.1
Language : Russian
Encoded date : UTC 2018-02-14 09:07:50
Tagged date : UTC 2018-02-14 09:11:10

Audio #5
ID : 6
Format : AC-3
Format/Info : Audio Coding 3
Mode extension : CM (complete main)
Format settings, Endianness : Big
Codec ID : ac-3
Duration : 2h 0mn
Bit rate mode : Constant
Bit rate : 384 Kbps
Channel(s) : 6 channels
Channel positions : Front: L C R, Side: L R, LFE
Sampling rate : 48.0 KHz
Bit depth : 16 bits
Compression mode : Lossy
Stream size : 330 MiB (6%)
Title : English DD 5.1
Language : English
Encoded date : UTC 2018-02-14 09:07:50
Tagged date : UTC 2018-02-14 09:11:10

Text #1
ID : 7
Format : Timed Text
Muxing mode : sbtl
Codec ID : tx3g
Duration : 1h 33mn
Bit rate mode : Variable
Bit rate : 2 bps
Stream size : 1.13 KiB (0%)
Title : Russian forced
Language : Russian
Encoded date : UTC 2018-02-14 09:07:50
Tagged date : UTC 2018-02-14 09:11:10

Text #2
ID : 8
Format : Timed Text
Muxing mode : sbtl
Codec ID : tx3g
Duration : 1h 40mn
Bit rate mode : Variable
Bit rate : 2 bps
Stream size : 1.33 KiB (0%)
Title : Ukrainian forced
Language : Ukrainian
Encoded date : UTC 2018-02-14 09:07:50
Tagged date : UTC 2018-02-14 09:11:10

Text #3
ID : 9
Format : Timed Text
Muxing mode : sbtl
Codec ID : tx3g
Duration : 1h 59mn
Bit rate mode : Variable
Bit rate : 76 bps
Stream size : 66.7 KiB (0%)
Title : Russian full
Language : Russian
Encoded date : UTC 2018-02-14 09:07:50
Tagged date : UTC 2018-02-14 09:11:10

Text #4
ID : 10
Format : Timed Text
Muxing mode : sbtl
Codec ID : tx3g
Duration : 1h 50mn
Bit rate mode : Variable
Bit rate : 49 bps
Stream size : 39.7 KiB (0%)
Title : English full
Language : English
Encoded date : UTC 2018-02-14 09:07:50
Tagged date : UTC 2018-02-14 09:11:10

Menu #1
00:00:00.000 : 1
00:10:56.000 : 2
00:19:16.000 : 3
00:30:41.000 : 4
00:40:19.000 : 5
00:49:56.000 : 6
01:01:26.000 : 7
01:09:41.000 : 8
01:19:18.000 : 9
01:30:34.000 : 10
01:40:33.000 : 11
01:48:42.000 : 12

Menu #2
ID : 11
Codec ID : text
Duration : 2h 0mn
Language : English
Encoded date : UTC 2018-02-14 09:11:11
Tagged date : UTC 2018-02-14 09:11:11
00:00:00.000 : 1
00:10:56.000 : 2
00:19:16.000 : 3
00:30:41.000 : 4
00:40:19.000 : 5
00:49:56.000 : 6
01:01:26.000 : 7
01:09:41.000 : 8
01:19:18.000 : 9
01:30:34.000 : 10
01:40:33.000 : 11
01:48:42.000 : 12
Bit rate mode : VBR

Релиз подготовлен для просмотра на Apple TV, iPad, iPhone, iPod Touch.
Для просмотра данного релиза на компьютере с ОС Windows рекомендуется использовать VLC media player

Трекер:  [ 14-Фев-2018 12:42 ]

  

Скачать .torrent

Размер .torrent файла 54 KB


Размер: 5.35 GB
Хэш (hash) релиза: 82b7e33544e902997c75152b787449e1546c9a1c

Еще никто не оставлял запись к записи скачать торрент [ATV3] Лига справедливости Justice League . Будь первым!

!Обратная связь