The Mysteries of Laura | Episode 5 | Last of the Ti season 03 episode 13

Скачать через торрент Родина Чужой среди своих Фильм бесплатно в хорошем качестве torrent

Скачивайте на UnionPeer.org фильмы через торрент без регистрации. Новинки кино в хорошем качестве через торрент. На UnionPeer.org можно скачать через торрент фильмы 2014 и 2015 годов. Самые новые фильмы.

Скачать торрент Родина Чужой среди своих бесплатно через .torrent фильм мультфильм сериал

Если у вас наблюдаются проблемы со скриншотами, переходом по ссылками, скачиванием торрентов - проблемы в блокировщике рекламы AdBlock. #хорошегоДня!


Статистика раздачи
Размер:  1.82 GB   |    Зарегистрирован:  4 дня   |    .torrent скачан:  24 раза   |   
Раздают:  1  
   
Загрузка...
 
Автор Сообщение

Galfimbul

avatar Galfimbul


Родина | Чужой среди своих | Homeland
Год выпуска: 2018
Страна: США | Teakwood Lane Productions, Cherry Pie Productions, Keshet Broadcasting
Жанр: Триллер, драма, криминал, детектив
Продолжительность: ~01:00:00
Перевод: Профессиональный (многоголосый закадровый) | LostFilm
Режиссёр: Лесли Линка Глаттер, Майкл Куэста, Дэниэл Эттиэс
В ролях: Клер Дэйнс, Руперт Френд, Элизабет Марвел, Ф. Мюррэй Абрахам, Мэнди Пэтинкин, Хилл Харпер, Мори Стерлинг, Эшли Шарп Честнат, Доминик Фумуса, Патрик Сабонгуй, Зайнаб Джа, Альфредо Нарцисо, Джамал Маллори-МакКри, Бернард Уайт, Аллан Кордунер, Нина Хосс, Джейк Уэбер, Дебора Хедуолл и др.
Описание: Кэрри оставила работу в Белом доме и переехала обратно в Вашингтон, и теперь она живёт вместе со своей сестрой Мэгги, чтобы бороться с администрацией Кин и обеспечить освобождение 200 членов разведывательного сообщества, которые были арестованы по приказу президента Кин.
Ссылка на предыдущие и альтернативные раздачи "Homeland"

Качество: WEB-DL 720p
Формат: MKV
Видео: AVC, 1280x720 (16:9), 23.976 fps, ~ 3 Mbps
Аудио №1: EAC3, 48,0 kHz, 6 ch, 640 kbps | LostFilm
Аудио №2: EAC3, 48,0 kHz, 6 ch, 640 kbps | Original
Субтитры: Русские (full |Amedia|), английские (full, SDH)
Реклама: Отсутствует | чистый видеоряд (без заставки и логотипа)
01. Enemy of the State / Враг государства
Релиз от
Аудио №1 получено наложением выделенных голосов от «LostFilm» на центр оригинального EAC3 (отдельная благодарность за 5.1 - iTunes_TV)
Источник: Homeland.S07.720p.AMZN.WEB-DL.DDP5.1.x264-NTb
General
Unique ID : 245976928182565854975971326374432860141 (0xB90D6EE3AC5EEB99B52A95D969A5E7ED)
Complete name : F:\Homeland_s07_LostFilm\Homeland_s07e01.WEB-DL.720p.LostFilm.mkv
Format : Matroska
Format version : Version 4 / Version 2
File size : 1.82 GiB
Duration : 59 min 55 s
Overall bit rate mode : Variable
Overall bit rate : 4 356 kb/s
Encoded date : UTC 2018-02-14 06:14:34
Writing application : mkvmerge v18.0.0 ('Apricity') 64-bit
Writing library : libebml v1.3.5 + libmatroska v1.4.8

Video
ID : 1
Format : AVC
Format/Info : Advanced Video Codec
Format profile : [email protected]
Format settings : CABAC / 5 Ref Frames
Format settings, CABAC : Yes
Format settings, ReFrames : 5 frames
Codec ID : V_MPEG4/ISO/AVC
Duration : 59 min 55 s
Bit rate mode : Variable
Bit rate : 3 073 kb/s
Maximum bit rate : 4 500 kb/s
Width : 1 280 pixels
Height : 720 pixels
Display aspect ratio : 16:9
Frame rate mode : Constant
Frame rate : 23.976 (24000/1001) FPS
Color space : YUV
Chroma subsampling : 4:2:0
Bit depth : 8 bits
Scan type : Progressive
Bits/(Pixel*Frame) : 0.139
Stream size : 1.29 GiB (71%)
Language : English
Default : Yes
Forced : No
Color range : Limited
Color primaries : BT.709
Transfer characteristics : BT.709
Matrix coefficients : BT.709

Audio #1
ID : 2
Format : E-AC-3
Format/Info : Enhanced Audio Coding 3
Codec ID : A_EAC3
Duration : 59 min 55 s
Bit rate mode : Constant
Bit rate : 640 kb/s
Channel(s) : 6 channels
Channel positions : Front: L C R, Side: L R, LFE
Sampling rate : 48.0 kHz
Frame rate : 187.500 FPS (256 SPF)
Compression mode : Lossy
Stream size : 274 MiB (15%)
Title : DD5.1 LostFilm
Language : Russian
Service kind : Complete Main
Default : Yes
Forced : No

Audio #2
ID : 3
Format : E-AC-3
Format/Info : Enhanced Audio Coding 3
Codec ID : A_EAC3
Duration : 59 min 55 s
Bit rate mode : Constant
Bit rate : 640 kb/s
Channel(s) : 6 channels
Channel positions : Front: L C R, Side: L R, LFE
Sampling rate : 48.0 kHz
Frame rate : 187.500 FPS (256 SPF)
Compression mode : Lossy
Stream size : 274 MiB (15%)
Title : DD5.1 Original
Language : English
Service kind : Complete Main
Default : No
Forced : No

Text #1
ID : 4
Format : UTF-8
Codec ID : S_TEXT/UTF8
Codec ID/Info : UTF-8 Plain Text
Duration : 55 min 24 s
Bit rate : 92 b/s
Count of elements : 692
Stream size : 37.7 KiB (0%)
Language : Russian
Default : No
Forced : No

Text #2
ID : 5
Format : UTF-8
Codec ID : S_TEXT/UTF8
Codec ID/Info : UTF-8 Plain Text
Duration : 57 min 13 s
Bit rate : 63 b/s
Count of elements : 861
Stream size : 26.8 KiB (0%)
Language : English
Default : No
Forced : No

Text #3
ID : 6
Format : UTF-8
Codec ID : S_TEXT/UTF8
Codec ID/Info : UTF-8 Plain Text
Duration : 57 min 13 s
Bit rate : 72 b/s
Count of elements : 1016
Stream size : 30.6 KiB (0%)
Title : SDH
Language : English
Default : No
Forced : No

Menu
00:00:00.000 : en:Studio Logo
00:00:04.000 : en:Previously On
00:01:53.000 : en:Title Sequence
00:02:03.000 : en:Josie becomes upset because of Bill, Carrie goes for an interview
00:07:14.000 : en:McClendon gets punished
00:10:26.000 : en:Brett does not want to cancel the broadcast
00:12:03.000 : en:Carrie asks the Senator to meet a person
00:16:36.000 : en:Sharon shoots Brett's speech
00:20:14.000 : en:Carrie checks into different hotels
00:23:53.000 : en:Elizabeth orders David to fix the issue
00:26:08.000 : en:Sharon wants to quit and Brett requests her to stay with him
00:30:05.000 : en:Carrie complains about a guy in the hotel
00:32:30.000 : en:Carrie changes the meeting place
00:34:40.000 : en:David meets Saul in prison and offers him a job
00:38:30.000 : en:Josie sees Carrie with Dante
00:40:34.000 : en:Carrie tries to convince Dante
00:44:55.000 : en:David orders the Secret service team to leave his place
00:45:44.000 : en:Carrie, Josie and Bill have a serious discussion
00:50:36.000 : en:McClendon gets sick
00:57:10.000 : en:End Credits
При каждом добавлении создаётся новый торрент. Чтобы начать докачку новой серии, пользователям необходимо сделать следующее:

- остановить скачивание;
- удалить старый торрент у себя из клиента (старые серии удалять не надо);
- скачать новый торрент и запустить его у себя в клиенте вместо старого, при этом указать клиенту путь в старую папку, куда и должно происходить скачивание новых серий.


Трекер:  [ 14-Фев-2018 09:54 ]

  

Скачать .torrent

Размер .torrent файла 18 KB


Размер: 1.82 GB
Хэш (hash) релиза: 29395340c72f0dff73a08715851754896f7d8ed1
Подписка на обновления:

Торренты, похожие на Родина Чужой среди своих скачать торрент

Форум Название Автор Размер S L Добавлен
Зарубежные сериалы ·· Родина / Чужой среди своих / Homeland / Сезон: 7 / Серия: 1 из 12 (Майкл Куэста) [2018, США, Триллер, драма, детектив, WEB-DL 1080p] MVO (LostFilm) + Original + Subs (Rus, Eng) Galfimbul 56037300495.22 GB 0 0 1518589469

09:24

14-Фев-18

Еще никто не оставлял запись к записи скачать торрент Родина Чужой среди своих . Будь первым!

!Обратная связь