Cassidy Red (2017) | Cantabile Tomorrow | Watch & Download Free ⇒

Скачать через торрент Родина Чужой среди своих Фильм бесплатно в хорошем качестве torrent

Скачивайте на UnionPeer.org фильмы через торрент без регистрации. Новинки кино в хорошем качестве через торрент. На UnionPeer.org можно скачать через торрент фильмы 2014 и 2015 годов. Самые новые фильмы.

Скачать торрент Родина Чужой среди своих бесплатно через .torrent фильм мультфильм сериал

Если у вас наблюдаются проблемы со скриншотами, переходом по ссылками, скачиванием торрентов - проблемы в блокировщике рекламы AdBlock. #хорошегоДня!


Статистика раздачи
Размер:  5.22 GB   |    Зарегистрирован:  4 дня   |    .torrent скачан:  20 раз   |   
Раздают:  1  
   
Загрузка...
 
Автор Сообщение

Galfimbul

avatar Galfimbul


Родина / Чужой среди своих / Homeland
Год выпуска: 2018
Страна: США | Teakwood Lane Productions, Cherry Pie Productions, Keshet Broadcasting
Жанр: Триллер, драма, криминал, детектив
Продолжительность: ~01:00:00

Перевод: Профессиональный (многоголосый закадровый) | LostFilm
Режиссёр: Кит Гордон, Лесли Линка Глаттер, Алекс Грейвз, Такер Гейтс, Дэниэл Эттиэс

В ролях: Клер Дэйнс, Руперт Френд, Элизабет Марвел, Ф. Мюррэй Абрахам, Мэнди Пэтинкин, Хилл Харпер, Мори Стерлинг, Эшли Шарп Честнат, Доминик Фумуса, Патрик Сабонгуй, Зайнаб Джа, Альфредо Нарцисо, Джамал Маллори-МакКри, Бернард Уайт, Аллан Кордунер, Нина Хосс, Джейк Уэбер, Дебора Хедуолл и др.
Описание: Кэрри оставила работу в Белом доме и переехала обратно в Вашингтон, и теперь она живёт вместе со своей сестрой Мэгги, чтобы бороться с администрацией Кин и обеспечить освобождение 200 членов разведывательного сообщества, которые были арестованы по приказу президента Кин.
Ссылка на предыдущие и альтернативные раздачи "Homeland"

Качество: WEB-DL 1080p
Формат: MKV
Видео: AVC, 1920x1080 (16:9), 23.976 fps, ~ 11 Mbps
Аудио №1: EAC3, 48,0 kHz, 6 ch, 640 kbps | LostFilm (отдельная благодарность за 5.1 - iTunes_TV)
Аудио №2: EAC3, 48,0 kHz, 6 ch, 640 kbps | Original
Субтитры: Русские (Full |Amedia|), английские (Full, SDH)

Примечание: Чистый видеоряд (без заставки и логотипа)!
Источник: Homeland.S07.1080p.AMZN.WEB-DL.DDP5.1.x264-NTb
01. Enemy of the State / Враг государства
Релиз от
Аудио №1 получено наложением выделенных голосов от «LostFilm» на центр оригинального EAC3.
Общее
Уникальный идентификатор : 230433364856133397594002895140120739166 (0xAD5BDA0CB24FBE66B410224B5FA0BD5E)
Полное имя : D:\Homeland_(s07)_1080p_LostFilm\Homeland.s07e01.WEB-DL.1080p.mkv
Формат : Matroska
Версия формата : Version 4 / Version 2
Размер файла : 5,22 Гбайт
Продолжительность : 59 м. 55 с.
Режим общего битрейта : Переменный
Общий поток : 12,5 Мбит/сек
Дата кодирования : UTC 2018-02-14 06:02:46
Программа кодирования : mkvmerge v18.0.0 ('Apricity') 64-bit
Библиотека кодирования : libebml v1.3.5 + libmatroska v1.4.8

Видео
Идентификатор : 1
Формат : AVC
Формат/Информация : Advanced Video Codec
Профиль формата : [email protected]
Настройки формата : CABAC / 4 Ref Frames
Параметр CABAC формата : Да
Параметр RefFrames формата : 4 кадра
Идентификатор кодека : V_MPEG4/ISO/AVC
Продолжительность : 59 м. 55 с.
Вид битрейта : Переменный
Битрейт : 11,2 Мбит/сек
Максимальный битрейт : 15,0 Мбит/сек
Ширина : 1920 пикселей
Высота : 1080 пикселей
Соотношение сторон : 16:9
Режим частоты кадров : Постоянный
Частота кадров : 23,976 (24000/1001) кадра/сек
Цветовое пространство : YUV
Субдискретизация насыщенности : 4:2:0
Битовая глубина : 8 бит
Тип развёртки : Прогрессивная
Бит/(Пиксели*Кадры) : 0.225
Размер потока : 4,68 Гбайт (90%)
Default : Да
Forced : Нет
Цветовой диапазон : Limited
Основные цвета : BT.709
Характеристики трансфера : BT.709
Коэффициенты матрицы : BT.709

Аудио #1
Идентификатор : 2
Формат : E-AC-3
Формат/Информация : Enhanced Audio Coding 3
Параметр Endianness формата : Big
Идентификатор кодека : A_EAC3
Продолжительность : 59 м. 55 с.
Вид битрейта : Постоянный
Битрейт : 640 Кбит/сек
Каналы : 6 каналов
Расположение каналов : Front: L C R, Side: L R, LFE
Частота : 48,0 КГц
Частота кадров : 187,500 кадров/сек (256 SPF)
Метод сжатия : С потерями
Размер потока : 274 Мбайт (5%)
Заголовок : LostFilm
Язык : Russian
ServiceKind/String : Complete Main
Default : Да
Forced : Нет

Аудио #2
Идентификатор : 3
Формат : E-AC-3
Формат/Информация : Enhanced Audio Coding 3
Параметр Endianness формата : Big
Идентификатор кодека : A_EAC3
Продолжительность : 59 м. 55 с.
Вид битрейта : Постоянный
Битрейт : 640 Кбит/сек
Каналы : 6 каналов
Расположение каналов : Front: L C R, Side: L R, LFE
Частота : 48,0 КГц
Частота кадров : 187,500 кадров/сек (256 SPF)
Метод сжатия : С потерями
Размер потока : 274 Мбайт (5%)
Язык : English
ServiceKind/String : Complete Main
Default : Нет
Forced : Нет

Текст #1
Идентификатор : 4
Формат : UTF-8
Идентификатор кодека : S_TEXT/UTF8
Идентификатор кодека/Информация : UTF-8 Plain Text
Продолжительность : 55 м. 24 с.
Битрейт : 92 бит/сек
ElementCount : 692
Размер потока : 37,7 Кбайт (0%)
Заголовок : Full |Amedia|
Язык : Russian
Default : Нет
Forced : Нет

Текст #2
Идентификатор : 5
Формат : UTF-8
Идентификатор кодека : S_TEXT/UTF8
Идентификатор кодека/Информация : UTF-8 Plain Text
Продолжительность : 57 м. 13 с.
Битрейт : 63 бит/сек
ElementCount : 861
Размер потока : 26,8 Кбайт (0%)
Заголовок : Full
Язык : English
Default : Нет
Forced : Нет

Текст #3
Идентификатор : 6
Формат : UTF-8
Идентификатор кодека : S_TEXT/UTF8
Идентификатор кодека/Информация : UTF-8 Plain Text
Продолжительность : 57 м. 13 с.
Битрейт : 72 бит/сек
ElementCount : 1016
Размер потока : 30,6 Кбайт (0%)
Заголовок : SDH
Язык : English
Default : Нет
Forced : Нет

Меню
00:00:00.000 : en:Studio Logo
00:00:04.000 : en:Previously On
00:01:53.000 : en:Title Sequence
00:02:03.000 : en:Josie becomes upset because of Bill, Carrie goes for an interview
00:07:14.000 : en:McClendon gets punished
00:10:26.000 : en:Brett does not want to cancel the broadcast
00:12:03.000 : en:Carrie asks the Senator to meet a person
00:16:36.000 : en:Sharon shoots Brett's speech
00:20:14.000 : en:Carrie checks into different hotels
00:23:53.000 : en:Elizabeth orders David to fix the issue
00:26:08.000 : en:Sharon wants to quit and Brett requests her to stay with him
00:30:05.000 : en:Carrie complains about a guy in the hotel
00:32:30.000 : en:Carrie changes the meeting place
00:34:40.000 : en:David meets Saul in prison and offers him a job
00:38:30.000 : en:Josie sees Carrie with Dante
00:40:34.000 : en:Carrie tries to convince Dante
00:44:55.000 : en:David orders the Secret service team to leave his place
00:45:44.000 : en:Carrie, Josie and Bill have a serious discussion
00:50:36.000 : en:McClendon gets sick
00:57:10.000 : en:End Credits
При каждом добавлении создаётся новый торрент. Чтобы начать докачку новой серии, пользователям необходимо сделать следующее:

- остановить скачивание;
- удалить старый торрент у себя из клиента (старые серии удалять не надо);
- скачать новый торрент и запустить его у себя в клиенте вместо старого, при этом указать клиенту путь в старую папку, куда и должно происходить скачивание новых серий.



Трекер:  [ 14-Фев-2018 09:24 ]

  

Скачать .torrent

Размер .torrent файла 13 KB


Размер: 5.22 GB
Хэш (hash) релиза: fb42ad5a49d0b75852486798e6cbd978a736c3ab
Подписка на обновления:

Торренты, похожие на Родина Чужой среди своих скачать торрент

Форум Название Автор Размер S L Добавлен
Зарубежные сериалы ·· Родина / Чужой среди своих / Homeland / Сезон: 7 / Серия: 1 из 12 (Лесли Линка Глаттер, Майкл Куэста, Дэниэл Эттиэс) [2018, США, триллер, драма, детектив, WEB-DL 720p] MVO (LostFilm) + Original + Subs (Rus, Eng) Galfimbul 19576492241.82 GB 0 0 1518591262

09:54

14-Фев-18

Еще никто не оставлял запись к записи скачать торрент Родина Чужой среди своих . Будь первым!

!Обратная связь