Jane the Virgin HDTV 720p AC3 5.1 | The Coin Locker | Marvels.Agents.of.S.H.I.E.L.D.S02E11.HDTV.XviD-ZM.srt

Скачать через торрент Реквием Requiem Фильм бесплатно в хорошем качестве torrent

Скачивайте на UnionPeer.org фильмы через торрент без регистрации. Новинки кино в хорошем качестве через торрент. На UnionPeer.org можно скачать через торрент фильмы 2014 и 2015 годов. Самые новые фильмы.

Скачать торрент Реквием Requiem бесплатно через .torrent фильм мультфильм сериал

Статистика раздачи
Размер:  3.33 GB   |    Зарегистрирован:  3 месяца 12 дней   |    .torrent скачан:  45 раз   |   
Раздают:  1  
   
загрузка...
 
Автор Сообщение

Galfimbul

avatar Galfimbul


Реквием / Requiem

Год выпуска: 2018
Страна: Великобритани
Жанр: Фэнтези, триллер
Продолжительность: 00:57:27
Перевод: Профессиональный (многоголосый закадровый) - NewStudio
Режиссёр: Махалия Бело
В ролях: Лидия Уилсон, Джоэль Фрай, Тара Фитцджеральд, Джеймс Фрешвилл, Шан Риз-Уильямс, Клэр Рашбрук, Джоэнна Скэнлэн, Ричард Хэррингтон, Брендан Койл, Саймон Кунц, Сэм Хэзелдайн
Описание: Жизнь Матильды, талантливой виолончелистки, переворачивается с ног на голову, после того как её мать неожиданно совершает самоубийство. В результате трагедии героиня начинает сомневаться во всем, что она знает о себе. В поисках правды она отправляется в валлийскую деревушку, где в 1994 году загадочно исчез ребёнок. Разобраться в собственном прошлом Матильде помогают лучший друг Хэл и местный житель по имени Ник, который, возможно, является не тем, кем кажется на первый взгляд.
Сэмпл: http://multi-up.com/1187074
Качество: WEB-DLRip
Формат: AVI
Видео: 720x400 (16:9), 25.000 fps, XviD build 67, 1385 Kbps, 0.20 bit/pixel
Аудио: MP3, 48 kHz, 2 ch, 128 kbps, CBR - Rus
Аудио: MP3, 48 kHz, 2 ch, 128 kbps, CBR - Eng
Субтитры: Отсутствуют
Реклама: Присутствует звуковая (два раза в начале и конце по 10 сек.)
Предыдущие и альтернативные раздачи
General
Complete name : Downloads\Requiem.s01.WEBDLRip.NewStudio\Requiem.s01e01.WEBDLRip.NewStudio.avi
Format : AVI
Format/Info : Audio Video Interleave
File size : 681 MiB
Duration : 57mn 27s
Overall bit rate : 1 656 Kbps
Writing application : VirtualDubMod 1.5.10.2 (build 2540/release)
Writing library : VirtualDubMod build 2540/release
Video #0
ID : 0
Format : MPEG-4 Visual
Format profile : Advanced [email protected]
Format settings, BVOP : 2
Format settings, QPel : Yes
Format settings, GMC : No warppoints
Format settings, Matrix : Default (MPEG)
Muxing mode : Packed bitstream
Codec ID : XVID
Codec ID/Hint : XviD
Duration : 57mn 27s
Bit rate : 1 385 Kbps
Width : 720 pixels
Height : 400 pixels
Display aspect ratio : 16:9
Frame rate : 25.000 fps
Color space : YUV
Chroma subsampling : 4:2:0
Bit depth : 8 bits
Scan type : Progressive
Compression mode : Lossy
Bits/(Pixel*Frame) : 0.192
Stream size : 569 MiB (84%)
Writing library : XviD 67
Audio #1
ID : 1
Format : MPEG Audio
Format version : Version 1
Format profile : Layer 3
Mode : Joint stereo
Mode extension : MS Stereo
Codec ID : 55
Codec ID/Hint : MP3
Duration : 57mn 27s
Bit rate mode : Constant
Bit rate : 128 Kbps
Channel(s) : 2 channels
Sampling rate : 48.0 KHz
Compression mode : Lossy
Stream size : 52.6 MiB (8%)
Alignment : Aligned on interleaves
Interleave, duration : 40 ms (1.00 video frame)
Interleave, preload duration : 504 ms
Audio #2
ID : 2
Format : MPEG Audio
Format version : Version 1
Format profile : Layer 3
Mode : Joint stereo
Codec ID : 55
Codec ID/Hint : MP3
Duration : 57mn 27s
Bit rate mode : Constant
Bit rate : 128 Kbps
Channel(s) : 2 channels
Sampling rate : 48.0 KHz
Compression mode : Lossy
Stream size : 52.6 MiB (8%)
Alignment : Aligned on interleaves
Interleave, duration : 40 ms (1.00 video frame)
Interleave, preload duration : 504 ms
Writing library : LAME3.99.5


Трекер:  [ 13-Фев-2018 22:48 ]

  

Скачать .torrent

Размер .torrent файла 17 KB


Размер: 3.33 GB
Хэш (hash) релиза: 1ca6083c61133246bf91138a51346e42dcdf5010
Подписка на обновления:

Еще никто не оставлял запись к записи скачать торрент Реквием Requiem . Будь первым!

!Обратная связь