business plan - 4653 Words | The Show Stoppers | Facebook

Скачать через торрент Новые трюки New Tricks Фильм бесплатно в хорошем качестве torrent

Скачивайте на UnionPeer.org фильмы через торрент без регистрации. Новинки кино в хорошем качестве через торрент. На UnionPeer.org можно скачать через торрент фильмы 2014 и 2015 годов. Самые новые фильмы.

Скачать торрент Новые трюки New Tricks бесплатно через .torrent фильм мультфильм сериал

Статистика раздачи
Размер:  974 MB   |    Зарегистрирован:  3 месяца 12 дней   |    .torrent скачан:  19 раз   |   
Раздают:  1  
   
загрузка...
 
Автор Сообщение

Galfimbul

avatar Galfimbul


Новые трюки / New Tricks

Год выпуска: 2010
Страна: Великобритания
Жанр: Детектив, драма
Продолжительность: 00:58:45

Перевод: Любительский (одноголосый закадровый) -Доцент-

Режиссёр: Philip John, Robin Sheppard, Kenny Glenaan, Julian Simpson, Tim Whitby

В ролях: Аманда Редман, Деннис Уотерман, Алан Армстронг, Джеймс Болам

Описание: Телевизионный сериал «Новые трюки» рассказывает о работе подразделения ОВНП / UCOS (Unsolved Crime and Open Case Squad – Отряд по расследованию Вновьоткрытых Нераскрытых Преступлений). Отрядом руководит детектив суперинтендант Сандра Пулман, а сам отряд состоит из отставных полицейских, которых повторно завербовали для проведения расследований нераскрытых дел. Название сериала происходит от известной пословицы «Старую собаку новым трюкам не обучишь». «Старые собаки» успешно адаптируют их знания и опыт к современным условиям и раскрывают преступления, которые не были раскрыты в течение долгих лет.

Доп. информация: Перевод данного сезона появился на трекере благодаря щедрости swisstex
Отдельное спасибо izmailovo999 за помощь с исходными DVD данного сезона.


Ссылка на предыдущие и альтернативные раздачи

Сезон 1
Сезон 2
Сезон 3
Сезон 4
Сезон 5
Сезон 6
Сезон 7

Сэмпл

Качество: DVDRip
Формат: AVI
Видео: 704x384, 23,976 fps, 1885 kbps, 0.291 bit/pixel
Аудио: MP3, 2 ch, 224 кб/с, 44 kHz
Аудио 2: AC3, 2 ch, 192 кб/с, 48 kHz
Субтитры: английские

Реклама:
Отсутствует
Нумерация серий по IMDB:
Серия 1
Общее
Полное имя : D:\New.Triks.S08.2011\novye.tryuki.s08e01.avi
Формат : AVI
Формат/Информация : Audio Video Interleave
Размер файла : 974 Мбайт
Продолжительность : 58 м. 45 с.
Общий поток : 2318 Кбит/сек
Программа кодирования : VirtualDubMod 1.5.10.2 (build 2540/release)
Библиотека кодирования : VirtualDubMod build 2540/release

Видео
Идентификатор : 0
Формат : MPEG-4 Visual
Профиль формата : Advanced [email protected]
Настройки формата : BVOP1
Параметр BVOP формата : 1
Параметр QPel формата : Нет
Параметр GMC формата : Без точки перехода
Параметр матрицы формата : Default (MPEG)
Режим смешивания : Сжатый битовый поток
Идентификатор кодека : XVID
Идентификатор кодека/Подсказка : XviD
Продолжительность : 58 м. 45 с.
Битрейт : 1888 Кбит/сек
Ширина : 704 пикселя
Высота : 384 пикселя
Соотношение сторон : 1,85:1
Частота кадров : 23,976 (24000/1001) кадра/сек
Цветовое пространство : YUV
Субдискретизация насыщенности : 4:2:0
Битовая глубина : 8 бит
Тип развёртки : Прогрессивная
Метод сжатия : С потерями
Бит/(Пиксели*Кадры) : 0.291
Размер потока : 794 Мбайт (81%)
Библиотека кодирования : XviD 1.2.1 (UTC 2008-12-04)

Аудио #1
Идентификатор : 1
Формат : MPEG Audio
Версия формата : Version 1
Профиль формата : Layer 3
Настройки формата : Joint stereo
Идентификатор кодека : 55
Идентификатор кодека/Подсказка : MP3
Продолжительность : 58 м. 45 с.
Вид битрейта : Постоянный
Битрейт : 224 Кбит/сек
Каналы : 2 канала
Частота : 44,1 КГц
Метод сжатия : С потерями
Размер потока : 94,1 Мбайт (10%)
Выравнивание : Соединение по промежуткам
Продолжительность промежутка : 42 мс. (1,00 видеокадр)
Время предзагрузки промежутка : 522 мс.

Аудио #2
Идентификатор : 2
Формат : AC-3
Формат/Информация : Audio Coding 3
Идентификатор кодека : 2000
Продолжительность : 58 м. 45 с.
Вид битрейта : Постоянный
Битрейт : 192 Кбит/сек
Каналы : 2 канала
Расположение каналов : Front: L R
Частота : 48,0 КГц
Частота кадров : 31,250 кадров/сек (1536 SPF)
Битовая глубина : 16 бит
Метод сжатия : С потерями
Размер потока : 80,7 Мбайт (8%)
Выравнивание : Разделение по промежуткам
Продолжительность промежутка : 42 мс. (1,00 видеокадр)
Время предзагрузки промежутка : 500 мс.
ServiceKind/String : Complete Main


Трекер:  [ 13-Фев-2018 20:18 ]

  

Скачать .torrent

Размер .torrent файла 19 KB


Размер: 974 MB
Хэш (hash) релиза: 6aa51cc8045c2e9488935a2ec558bcba6a65b33d
Подписка на обновления:

Еще никто не оставлял запись к записи скачать торрент Новые трюки New Tricks . Будь первым!

!Обратная связь