Enrique Arce
Watch movie

Скачать через торрент Детективы Сезон: Серии: 1-? из ? Фильм бесплатно в хорошем качестве torrent

Скачивайте на UnionPeer.org фильмы через торрент без регистрации. Новинки кино в хорошем качестве через торрент. На UnionPeer.org можно скачать через торрент фильмы 2014 и 2015 годов. Самые новые фильмы.

Скачать торрент Детективы Сезон: Серии: 1-? из ? бесплатно через .torrent фильм мультфильм сериал

Если у вас наблюдаются проблемы со скриншотами, переходом по ссылками, скачиванием торрентов - проблемы в блокировщике рекламы AdBlock. #хорошегоДня!


Статистика раздачи
Размер:  296 MB   |    Зарегистрирован:  10 дней   |    .torrent скачан:  23 раза   |   
Раздают:  1  
   
Загрузка...
 
Автор Сообщение

Galfimbul

avatar Galfimbul


Детективы

Год выпуска: 2018
Производство: Россия, "ОТК"
Жанр: Детектив
Продолжительность: 00:31:00
Субтитры: Нет

Режиссёр: Фирдавс Зайнутдинов

В ролях: Алексей Насонов, Игорь Лукин, Роман Санин, Наталья Русинова, Юрий Гумиров

Описание: "Детективы" – так называется частное сыскное агентство. Клиенты обращаются в него тогда, когда надо буквально "докопаться" до правды, когда нужен не просто правовой совет, но активная помощь. И когда надежды или желания обращаться в милицию по вполне понятным причинам быть не может. В интересах клиентов сотрудники "Детективов" разыскивают свидетелей, выезжают на место событий, с помощью современной техники добывают необходимые доказательства. Напряженное молниеносное расследование всякий раз приводит к результатам, неожиданным для клиентов, самих сыщиков и зрителей.

Реклама: Нет

Сэмпл: http://multi-up.com/1187029

Качество: SATRip
Формат: MPEG-4
Видео кодек: AVC
Аудио кодек: AAC
Видео: 1280х720 (4:2:0), 30 fps, H264 - MPEG-4 AVC 10 ~1166 kbps avg, 0.042 bit/pixel
Аудио: 44,1 kHz, MPEG AAC Audio (mp4a), 2/0 (L,R), ~126 kbps avg
Общее
Полное имя : C:\Торрент\Детективы\Детективы Дневник воспоминаний.mp4
Формат : MPEG-4
Профиль формата : Base Media / Version 2
Идентификатор кодека : mp42 (isom/mp42)
Размер файла : 296 Мбайт
Продолжительность : 31 м. 55 с.
Режим общего битрейта : Переменный
Общий поток : 1295 Кбит/сек
Дата кодирования : UTC 2018-02-13 12:18:42
Дата пометки : UTC 2018-02-13 12:18:42
gsst : 0
gstd : 1915808

Видео
Идентификатор : 1
Формат : AVC
Формат/Информация : Advanced Video Codec
Профиль формата : [email protected]
Настройки формата : CABAC / 3 Ref Frames
Параметр CABAC формата : Да
Параметр RefFrames формата : 3 кадра
Идентификатор кодека : avc1
Идентификатор кодека/Информация : Advanced Video Coding
Продолжительность : 31 м. 55 с.
Битрейт : 1166 Кбит/сек
Ширина : 1280 пикселей
Высота : 720 пикселей
Соотношение сторон : 16:9
Режим частоты кадров : Постоянный
Частота кадров : 30,000 кадров/сек
Цветовое пространство : YUV
Субдискретизация насыщенности : 4:2:0
Битовая глубина : 8 бит
Тип развёртки : Прогрессивная
Бит/(Пиксели*Кадры) : 0.042
Размер потока : 266 Мбайт (90%)
Заголовок : ISO Media file produced by Google Inc. Created on: 02/13/2018.
Дата кодирования : UTC 2018-02-13 12:18:42
Дата пометки : UTC 2018-02-13 12:18:42
Цветовой диапазон : Limited
Основные цвета : BT.709
Характеристики трансфера : BT.709
Коэффициенты матрицы : BT.709

Аудио
Идентификатор : 2
Формат : AAC
Формат/Информация : Advanced Audio Codec
Профиль формата : LC
Идентификатор кодека : mp4a-40-2
Продолжительность : 31 м. 55 с.
Вид битрейта : Переменный
Битрейт : 126 Кбит/сек
Каналы : 2 канала
Расположение каналов : Front: L R
Частота : 44,1 КГц
Частота кадров : 43,066 кадра/сек (1024 SPF)
Метод сжатия : С потерями
Размер потока : 28,7 Мбайт (10%)
Заголовок : ISO Media file produced by Google Inc. Created on: 02/13/2018.
Предыдущие и альтернативные раздачи

Трекер:  [ 13-Фев-2018 17:18 ]

  

Скачать .torrent

Размер .torrent файла 12 KB


Размер: 296 MB
Хэш (hash) релиза: a29659c54fc85b2b362d920258b8afa09fa277fb
Подписка на обновления:

Торренты, похожие на Детективы Сезон: Серии: 1-? из ? скачать торрент

Форум Название Автор Размер S L Добавлен
Зарубежные сериалы ·· Клуб детективов / The Young Detectives / Detektivklubben / Сезон: 1 / Серии: 1-5 из 5 (Нефиз Эзкаль Лорентцен / Nefise Özkal Lorentzen) [2008, семейный, фантастика, DVB] MVO (Карусель) Galfimbul 849608704810 MB 0 0 1373726126

17:35

13-Июл-13

Зарубежные сериалы ·· Детективное агентство / Детективы / Detectives / Сезон: 2 / Серии: 1-4 из 8 (Рено Бертран / Renaud Bertrand, Жан-Марк Рудницкий / Jean-Marc Rudnicki) [2014, криминальная комедия, DVB] Original + Rus Sub (Eclair Group) Galfimbul 46848561014.36 GB 0 0 1430413355

20:02

30-Апр-15

Зарубежные сериалы ·· Детективное агентство / Детективы / Detectives / Сезон: 2 / Серии: 1-2 из 8 (Рено Бертран / Renaud Bertrand) [2014, криминальная комедия, DVB] Original + Rus Sub (Eclair Group) Galfimbul 23901063712.23 GB 0 0 1429896731

20:32

24-Апр-15

Зарубежные сериалы ·· Юные детективы / Kid Detectives / Сезон: 1 / Серии: 52 из 52 (Иан Манро / Ian Munro, Майкл Нейл-Смит / Michael Neil-Smith) [2009, Детский, детектив, обучающий, SATRip] DVO Galfimbul 85959181228.01 GB 0 0 1420493579

00:32

6-Янв-15

Еще никто не оставлял запись к записи скачать торрент Детективы Сезон: Серии: 1-? из ? . Будь первым!

!Обратная связь