the orignals s05e06 | Sultan The Saviour (2018) Bengali Full Movie Download | 10 Rules for Sleeping Around (2013) Neue link: 2017/01/06 Views: 6480 Länge: 94 min IMDB rating: 3.7 Uploaded: 2017/01/06 10 Rules for Sleeping Around 2013

Скачать через торрент Красный фотон Зиллион Akai Koudan Zillion бесплатно Аниме Все серии на русском torrent

Статистика раздачи
Размер:  19.06 GB   |    Зарегистрирован:  4 месяца 8 дней   |    .torrent скачан:  29 раз   |   
Раздают:  1  
   
загрузка...
 
Автор Сообщение

Galfimbul

avatar Galfimbul


Красный фотон Зиллион / Akai Koudan Zillion / Red Photon Zillion
赤い光弾ジリオン
Страна: Япония

Выпуск: 12.04.1987 по 13.12.1987

Жанры: приключения, фантастика, меха

Тип/Продолжительность: TV, 31 эп. по 25 мин.

Режиссёр: Нисикубо Мидзухо
Студии: &
Описание:
2387 год. Планета Марис, которую называют Второй Землёй, подвергается нападению Империи Ноза. Однако Ноза не знают, что на Марисе находятся три пистолета, которые обладают огромной силой и способны уничтожить их. Этим оружием владеет трио главных героев, которое выступает против имперцев.
Информационные ссылки: World Art || AniDB || MAL
Субтитры:

русские, софтсаб, внешними файлами, от AlexMalkavian & Faddeich
перевод: AlexMalkavian; редактура: Faddeich

Озвучка:

русская, двухголосая (муж./жен.), внешними файлами, от Jar & Rudoshka (AniDub) [1, 2]
Качество: DVDRip | Тип видео: без хардсаба | Формат: MKV

Видео: 720x540, 29.970 f/s, H.264 (8 bits), 3 375 Kb/s

Аудио JAP: 44.1 KHz, MP2, 2 channels, 128 Kb/s
Аудио RUS: 48.0 KHz, AC3, 2 channels, 192 Kb/s

Общее
Уникальный идентификатор                 : 168348648403719580577546155723716462494 (0x7EA6C532C2870C1E037BA147C20E879E)
Полное имя                               : ***\Красный фотон Зиллион [Akai Koudan Zillion]\Akai Koudan Zillion 01.mkv
Формат                                   : Matroska
Версия формата                           : Version 2
Размер файла                             : 627 Мбайт
Продолжительность                        : 24 м.
Общий поток                              : 3574 Кбит/сек
Программа кодирования                    : Lavf51.12.1
Библиотека кодирования                   : Lavf51.12.1

Видео
Идентификатор                            : 1
Формат                                   : AVC
Формат/Информация                        : Advanced Video Codec
Профиль формата                          : [email protected]
Параметр CABAC формата                   : Нет
Параметр ReFrames формата                : 1 кадр
Параметр GOP формата                     : M=1, N=12
Идентификатор кодека                     : V_MPEG4/ISO/AVC
Продолжительность                        : 24 м.
Битрейт                                  : 3375 Кбит/сек
Ширина                                   : 720 пикселей
Высота                                   : 540 пикселей
Соотношение сторон                       : 4:3
Режим частоты кадров                     : Постоянный
Частота кадров                           : 29,970 кадров/сек
Цветовое пространство                    : YUV
Субдискретизация насыщенности            : 4:2:0
Битовая глубина                          : 8 бит
Тип развёртки                            : Прогрессивная
Бит/(Пиксели*Кадры)                      : 0.290
Размер потока                            : 592 Мбайт (94%)
Default                                  : Да
Forced                                   : Нет

Аудио
Идентификатор                            : 2
Формат                                   : MPEG Audio
Версия формата                           : Version 1
Профиль формата                          : Layer 2
Идентификатор кодека                     : A_MPEG/L2
Идентификатор кодека/Подсказка           : MP2
Продолжительность                        : 24 м.
Вид битрейта                             : Постоянный
Битрейт                                  : 128 Кбит/сек
Каналы                                   : 2 канала
Частота                                  : 44,1 КГц
Метод сжатия                             : С потерями
Размер потока                            : 22,4 Мбайт (4%)
Default                                  : Да
Forced                                   : Нет
01. The codename is J.J. / Позывной — Джей Джей
02. Attack the enemy of the high skies / Врага сверху — сбить!
03. The chance is 0.1 second! / Шанс в 0,1 секунды!
04. Trap of the shapeless ninja squadron / В засаде отряда ниндзя-невидимок
05. Apple order violation!? / Эппл нарушает приказ?!
06. Take off, Tricharger / Запуск трайчарджеров
07. Struggle till death! J.J. Versus Ricks / Смертельный бой! Джей Джей против Рикса
08. Strike the oceanfloor base! / Уничтожить базу на дне океана!
09. Stolen Zillion / Украденный Зиллион
10. Flames! Ricks' counterattack / Пламя! Ответный удар Рикса
11. Birth of new zillion! / Рождение нового Зиллиона!
12. Attack! Triple shoot / Пли! Тройной выстрел
13. Angry shutter chance / Шанс яростного фотографа
14. Nightingale of the battlefield / Найтингейл на поле боя
15. Life Or Death!? Confrontation of fate - first part / Жизнь или смерть? Судьбоносная схватка (часть 1)
16. Life Or Death!? Confrontation of fate - last part / Жизнь или смерть? Судьбоносная схватка (часть 2)
17. Tears! Let's search J.J. / Слёзы! Найти Джей Джея
18. The beautiful noza's challenge / Прекрасная противница-ноза
19. Match! Let's throw the coin / Каков исход? Решает бросок монеты
20. Kick with a broken heart / Победить силой несчастной любви
21. Clash! The sniper / Стычка со снайпером!
22. Great victory from a lie! / Ложь, приносящая победу!
23. Terror! Demon's bio weapon / Ужас! Дьявольское биооружие
24. Great adventure! Warrior Opa-Opa / Большое приключение! Воин Опа-Опа
25. Gentle fugitive Apple / Эппл, ласковая беглянка
26. Revenge demon ninja! / Крадущийся демон мести!
27. Extraordinary Rebel Ricks / Бездушный мятежник Рикс
28. Mystery!? Zillion power / Тайна?! Сила Зиллиона
29. Heroic! Ricks dies!? / Величие! Рикс умирает?!
30. Planet Maris on the corner! / Планета Марис в безвыходном положении!
31. Last shoot for victory / Последний выстрел перед победой
От этой - выше качество видео (сравнение), наличие озвучки.


Трекер:  [ 13-Фев-2018 14:01 ]

  

Скачать .torrent

Размер .torrent файла 100 KB


Размер: 19.06 GB
Хэш (hash) релиза: 6b819d02fbbf1d9fbc690c9837d629bec822a9ac
Подписка на обновления:

Торренты, похожие на Красный фотон Зиллион Akai Koudan Zillion скачать торрент

Форум Название Автор Размер S L Добавлен
Аниме | Rips ·· Красный фотон Зиллион: Ночь в огне / Akai Koudan Zillion Utahime Yakyoku / Red Photon Zillion: Burning Night [OVA][1 из 1][Без хардсаба][JAP, ENG + SUB][1988, фантастика, приключения, DVDRip] Galfimbul 367022072350 MB 0 0 1421669528

15:12

19-Янв-15

Еще никто не оставлял запись к записи скачать торрент Красный фотон Зиллион Akai Koudan Zillion . Будь первым!

!Обратная связь