EP 16 The 100 | Pokemon: Mewtwo Returns (2000) | Den Of Thieves

Скачать через торрент Фарго Fargo Фильм бесплатно в хорошем качестве torrent

Скачивайте на UnionPeer.org фильмы через торрент без регистрации. Новинки кино в хорошем качестве через торрент. На UnionPeer.org можно скачать через торрент фильмы 2014 и 2015 годов. Самые новые фильмы.

Скачать торрент Фарго Fargo бесплатно через .torrent фильм мультфильм сериал

Статистика раздачи
Размер:  19.45 GB   |    Зарегистрирован:  3 месяца 12 дней   |    .torrent скачан:  75 раз   |   
Раздают:  1  
   
загрузка...
 
Автор Сообщение

Galfimbul

avatar Galfimbul


Фарго / Fargo
Год выпуска: 2014-2017
Страна: США
Жанр: Триллер, драма, криминал
Продолжительность: ~00:53:00
Перевод: Профессиональный (многоголосый закадровый) | LostFilm
Режиссёр: Майкл Аппендаль, Кит Гордон, Рэндолл Айнхорн
В ролях: Мартин Фриман, Билли Боб Торнтон, Эллисон Толман, Колин Хэнкс, Боб Оденкёрк, Патрик Уилсон, Кирстен Данст, Эван МакГрегор, Кэрри Кун, Мэри Элизабет Уинстэд, Джим, Джесси Племонс, Тед Дэнсон, Джин Смарт, Энгус Сэмпсон, Адам Аркин, Брэд Манн, Занн МаКларнон, Эмили Хейн, Кейр О'Доннелл, Жюль Хобсон, Анна Каммер, Дэн Бирн, Тодд Манн, Райан О'Нан, Джесси Коллин, Дэйв Бурчилл
Описание: Первый сезон: В небольшой захолустный городок Фарго, штат Миннесота, прибывает подозрительный бродяга с темным прошлым — Лорн Малво. Его появление сопровождается чередой очень неприятных для горожан событий и одной личностной катастрофой. Главный герой нового шоу — страховой агент Лестер Нигард. Он понимает, что устал от себя и от своей скучной жизни, в которой не происходит ничего примечательного. Лестер чувствует себя потерянным, но не знает, как в сложившихся условиях измениться самому и повернуть течение своей унылой жизни в правильное русло. Зато Лорн Малво знает. Беспринципный пройдоха берет в оборот слабохарактерного Нигарда, и в жизни последнего появляются адреналин, приключения и очень большие проблемы.

Третий сезон: События разворачиваются в 1979 году в городах Су-Фолс (Южная Дакота) и Луверн (Миннесота). Молодой сержант национальной гвардии Лу Солверсон (Патрик Уилсон), недавно вернувшийся из Вьетнама, расследует дело, в котором переплелись местная банда, крупный мафиозный синдикат, косметолог Пегги Блумквист (Кирстен Данст) и ее муж Эд — помощник местного мясника. Распутать этот клубок Лу помогает шериф Хэнк Ларссон. В ходе расследования напарникам предстоит познакомиться с изрядным количеством незаурядных персонажей, как, например, юрист Карл Везерс — ветеран войны во Вьетнаме, пьяница, обладающий невероятным даром красноречия.

В третьем сезоне: Действие разворачивается в 2010 году. Король парковок Миннесоты Эммит считает себя воплощением американской мечты. Его младший брат Рэй — лысеющий сотрудник службы надзора за условно освобожденными — постоянно живет в тени своего успешного брата. Их соперничество быстро набирает обороты...

<div class="post-box" style="border-color: #aed8ff; background: #003465;">Ссылка на предыдущие и альтернативные раздачи</div>
Качество: BDRip, WEB-DLRip
Формат: AVI
Видео: XviD, 704x352, 720x400, 23,976 fps, ~1500 kbps avg, 0.22 bit/pixel
Аудио #1: 48 kHz, MPEG Layer 3, 2 ch, ~128.00 kbps | Rus
Аудио #3: 48 kHz, MPEG Layer 3, 2 ch, ~128.00 kbps | Eng
Субтитры: нет
Реклама: Отсутствует
Format : AVI
Format/Info : Audio Video Interleave
File size : 885 MiB
Duration : 1 h 9 min
Overall bit rate : 1 770 kb/s
Writing application : VirtualDubMod 1.5.10.2 (build 2540/release)
Writing library : VirtualDubMod build 2540/release

Video
ID : 0
Format : MPEG-4 Visual
Format profile : Advanced [email protected]
Format settings : BVOP1 / Custom Matrix
Format settings, BVOP : 1
Format settings, QPel : No
Format settings, GMC : No warppoints
Format settings, Matrix : Custom
Codec ID : XVID
Codec ID/Hint : XviD
Duration : 1 h 9 min
Bit rate : 1 500 kb/s
Width : 720 pixels
Height : 400 pixels
Display aspect ratio : 16:9
Frame rate : 23.976 (24000/1001) FPS
Color space : YUV
Chroma subsampling : 4:2:0
Bit depth : 8 bits
Scan type : Progressive
Compression mode : Lossy
Bits/(Pixel*Frame) : 0.217
Stream size : 750 MiB (85%)
Writing library : XviD 73

Audio #1
ID : 1
Format : MPEG Audio
Format version : Version 1
Format profile : Layer 3
Format settings : Joint stereo
Codec ID : 55
Codec ID/Hint : MP3
Duration : 1 h 9 min
Bit rate mode : Constant
Bit rate : 128 kb/s
Channel(s) : 2 channels
Sampling rate : 48.0 kHz
Compression mode : Lossy
Stream size : 64.0 MiB (7%)
Alignment : Split accross interleaves
Interleave, duration : 42 ms (1.00 video frame)
Interleave, preload duratio : 500 ms

Audio #2
ID : 2
Format : MPEG Audio
Format version : Version 1
Format profile : Layer 3
Format settings : Joint stereo / MS Stereo
Codec ID : 55
Codec ID/Hint : MP3
Duration : 1 h 9 min
Bit rate mode : Constant
Bit rate : 128 kb/s
Channel(s) : 2 channels
Sampling rate : 48.0 kHz
Compression mode : Lossy
Stream size : 64.0 MiB (7%)
Alignment : Split accross interleaves
Interleave, duration : 42 ms (1.00 video frame)
Interleave, preload duratio : 500 ms
<div class="sp-wrap">
<div class="sp-head folded">Скриншоты</div>
<div class="sp-body"> </div>
</div>


Трекер:  [ 13-Фев-2018 13:18 ]

  

Скачать .torrent

Размер .torrent файла 99 KB


Размер: 19.45 GB
Хэш (hash) релиза: 9e293f455906818a86e457086af99328fac96491
Подписка на обновления:

Еще никто не оставлял запись к записи скачать торрент Фарго Fargo . Будь первым!

!Обратная связь