Es war einmal Amerika | Es war einmal das Leben | Es war einmal der Mensch

[ATV3] , , ! 2 Daddys Home 2 torrent

, , - AdBlock. #!


6.51 GB   |    :  6    |    .torrent :  25    |   
1  
   
...
 

Galfimbul

avatar Galfimbul


, , ! 2 / Daddy's Home 2
,

6.382 / 10 6.00 / 10
: 2017
:
:
: 01:39:42

: (iTunes)
:
C: ,
:
: , ,
: , ,
:
:
: , ,
: .
: , , , , , , , , ,

: $69 000 000
: $103 996 842
: + $76 583 737 = $180 580 579
: $3 560 784

: 8 2017
(): 23 2017,

: 08 2018, Paramount

DVD: 19 2018,
Blu-Ray: 19 2018,

: , , , . , - . , .
: Blu-Ray (BlueBird)
: BDRip
: HD (1080p)
: M4V
: H.264, 1920x1080, 16:9, 8 000 Kbps, 23.976 (24000/1001) fps

1: / (iTunes), AAC / 2.0 / 160 Kbps / 48.0 KHz
2: / , AAC / 2.0 / 160 Kbps / 48.0 KHz
3: / (iTunes), AC-3 / 5.1 / 384 Kbps / 48.0 KHz
4: / , AC-3 / 5.1 / 640 Kbps / 48.0 KHz

1:
2:
Sort Name: Daddy's Home 2
XID: Apple:vendor_id:2017-975249
contentID: 1297729422
Copyright: 2017 Paramount Pictures. All Rights Reserved.
Screenwriters: , ,
Producers: , ,
Director:
Cast: , , , , , , , , ,
Studio: Paramount
Rating: 4
Long Description: , , , . , - . , .
Description: , , , . , - . , .
Release Date: 2017-11-08T08:00:00Z
Genre: Comedy
Artist: Sean Anders
Name: Daddy's Home 2
General
Complete name : /Users/imac/HandBrake/Daddy's Home 2 (1080p HD).m4v
Format : MPEG-4
Codec ID : M4V (M4V /M4A /mp42/isom)
File size : 6.51 GiB
Duration : 1h 39mn
Overall bit rate mode : Variable
Overall bit rate : 9 345 Kbps
Movie name : Daddy's Home 2
Performer : Sean Anders
Director :
Actor : / / / / / / / / /
Screenplay by : / /
Producer : / /
Production studio : Paramount
Genre : Comedy
ContentType : Short Film
Description : , , , . , - . , .
Recorded date : UTC 2017-11-08 08:00:00
Encoded date : UTC 2018-02-13 09:08:13
Tagged date : UTC 2018-02-13 09:12:22
Copyright : 2017 Paramount Pictures. All Rights Reserved.
Cover : Yes
Rating : None
Title/Sort : Daddy\'s Home 2
LongDescription : , , , . , - . , .
AppleStoreCatalogID : 1297729422
Vendor : Apple:vendor_id:2017-975249
ContentRating : mpaa|PG-13|300|

Video #1
ID : 1
Format : AVC
Format/Info : Advanced Video Codec
Format profile : [email protected]
Format settings : CABAC / 4 Ref Frames
Format settings, CABAC : Yes
Format settings, ReFrames : 4 frames
Codec ID : avc1
Codec ID/Info : Advanced Video Coding
Duration : 1h 39mn
Source duration : 1h 39mn
Bit rate : 8 000 Kbps
Width : 1 920 pixels
Height : 1 080 pixels
Display aspect ratio : 16:9
Frame rate mode : Variable
Frame rate : 23.976 (24000/1001) fps
Minimum frame rate : 23.974 fps
Maximum frame rate : 23.981 fps
Color space : YUV
Chroma subsampling : 4:2:0
Bit depth : 8 bits
Scan type : Progressive
Bits/(Pixel*Frame) : 0.161
Stream size : 5.57 GiB (86%)
Source stream size : 5.57 GiB (86%)
Title : Main Program
Writing library : x264 core 148 r2708 86b7198
Encoding settings : cabac=1 / ref=4 / deblock=1:-2:-2 / analyse=0x3:0x133 / me=umh / subme=10 / psy=1 / psy_rd=1.00:0.15 / mixed_ref=1 / me_range=32 / chroma_me=1 / trellis=2 / 8x8dct=1 / cqm=0 / deadzone=21,11 / fast_pskip=1 / chroma_qp_offset=-3 / threads=34 / lookahead_threads=8 / sliced_threads=0 / nr=0 / decimate=0 / interlaced=0 / bluray_compat=0 / constrained_intra=0 / bframes=16 / b_pyramid=2 / b_adapt=2 / b_bias=0 / direct=3 / weightb=1 / open_gop=0 / weightp=2 / keyint=240 / keyint_min=24 / scenecut=40 / intra_refresh=0 / rc_lookahead=40 / rc=2pass / mbtree=1 / bitrate=8000 / ratetol=1.0 / qcomp=0.70 / qpmin=0 / qpmax=69 / qpstep=4 / cplxblur=20.0 / qblur=0.5 / ip_ratio=1.40 / aq=1:1.00
Language : English
Encoded date : UTC 2018-02-13 09:08:13
Tagged date : UTC 2018-02-13 09:08:30
Color range : Limited
Color primaries : BT.709
Transfer characteristics : BT.709
Matrix coefficients : BT.709
Menus : 8,9

Video #2
ID : 9
Format : JPEG
Codec ID : jpeg
Duration : 1h 39mn
Bit rate mode : Variable
Bit rate : 871 bps
Width : 640 pixels
Height : 360 pixels
Display aspect ratio : 16:9
Frame rate mode : Variable
Frame rate : 0.002 fps
Minimum frame rate : 0.002 fps
Maximum frame rate : 0.004 fps
Color space : YUV
Chroma subsampling : 4:2:0
Bit depth : 8 bits
Compression mode : Lossy
Bits/(Pixel*Frame) : 1.890
Stream size : 744 KiB (0%)
Title : Chapter Images
Language : English
Default : No
Encoded date : UTC 2018-02-13 09:08:40
Tagged date : UTC 2018-02-13 09:08:41
Menu For : 1

Audio #1
ID : 2
Format : AAC
Format/Info : Advanced Audio Codec
Format profile : LC
Codec ID : mp4a-40-2
Duration : 1h 39mn
Source duration : 1h 39mn
Bit rate mode : Variable
Bit rate : 156 Kbps
Maximum bit rate : 239 Kbps
Channel(s) : 2 channels
Channel positions : Front: L R
Sampling rate : 48.0 KHz
Frame rate : 46.875 fps (1024 SPF)
Compression mode : Lossy
Stream size : 111 MiB (2%)
Source stream size : 111 MiB (2%)
Title : Russian Stereo
Language : Russian
Default : Yes
Alternate group : 1
Encoded date : UTC 2018-02-13 09:08:13
Tagged date : UTC 2018-02-13 09:08:34
Fallback From : 4
Menus : 8

Audio #2
ID : 3
Format : AAC
Format/Info : Advanced Audio Codec
Format profile : LC
Codec ID : mp4a-40-2
Duration : 1h 39mn
Source duration : 1h 39mn
Bit rate mode : Variable
Bit rate : 155 Kbps
Maximum bit rate : 267 Kbps
Channel(s) : 2 channels
Channel positions : Front: L R
Sampling rate : 48.0 KHz
Frame rate : 46.875 fps (1024 SPF)
Compression mode : Lossy
Stream size : 110 MiB (2%)
Source stream size : 110 MiB (2%)
Title : English Stereo
Language : English
Default : No
Alternate group : 1
Encoded date : UTC 2018-02-13 09:08:13
Tagged date : UTC 2018-02-13 09:08:34
Fallback From : 5

Audio #3
ID : 4
Format : AC-3
Format/Info : Audio Coding 3
Codec ID : ac-3
Duration : 1h 39mn
Bit rate mode : Constant
Bit rate : 384 Kbps
Channel(s) : 6 channels
Channel positions : Front: L C R, Side: L R, LFE
Sampling rate : 48.0 KHz
Frame rate : 31.250 fps (1536 SPF)
Bit depth : 16 bits
Compression mode : Lossy
Stream size : 274 MiB (4%)
Title : Russian DD 5.1
Language : Russian
Service kind : Complete Main
Default : Inherited From: 2
Alternate group : 1
Encoded date : UTC 2018-02-13 09:08:13
Tagged date : UTC 2018-02-13 09:08:23
Fallback To : 2

Audio #4
ID : 5
Format : AC-3
Format/Info : Audio Coding 3
Codec ID : ac-3
Duration : 1h 39mn
Bit rate mode : Constant
Bit rate : 640 Kbps
Channel(s) : 6 channels
Channel positions : Front: L C R, Side: L R, LFE
Sampling rate : 48.0 KHz
Frame rate : 31.250 fps (1536 SPF)
Bit depth : 16 bits
Compression mode : Lossy
Stream size : 456 MiB (7%)
Title : English DD 5.1
Language : English
Service kind : Complete Main
Default : No
Alternate group : 1
Encoded date : UTC 2018-02-13 09:08:13
Tagged date : UTC 2018-02-13 09:08:23
Fallback To : 3

Text #1
ID : 6
Format : Timed Text
Muxing mode : sbtl
Codec ID : tx3g
Duration : 1h 39mn
Bit rate mode : Variable
Bit rate : 143 bps
Stream size : 104 KiB (0%)
Title : Russian full
Language : Russian
Default : Yes
Forced : No
Alternate group : 2
Encoded date : UTC 2018-02-13 09:08:13
Tagged date : UTC 2018-02-13 09:08:14

Text #2
ID : 7
Format : Timed Text
Muxing mode : sbtl
Codec ID : tx3g
Duration : 1h 39mn
Bit rate mode : Variable
Bit rate : 113 bps
Stream size : 82.4 KiB (0%)
Title : English full
Language : English
Default : No
Forced : No
Alternate group : 2
Encoded date : UTC 2018-02-13 09:08:13
Tagged date : UTC 2018-02-13 09:08:14

Menu #1
00:00:00.000 : Chapter 1
00:08:08.530 : Chapter 2
00:16:08.092 : Chapter 3
00:21:44.053 : Chapter 4
00:27:40.159 : Chapter 5
00:32:47.424 : Chapter 6
00:40:49.030 : Chapter 7
00:47:57.166 : Chapter 8
00:52:27.895 : Chapter 9
01:00:08.730 : Chapter 10
01:08:37.363 : Chapter 11
01:15:23.102 : Chapter 12
01:26:24.846 : Chapter 13
01:33:34.943 : Chapter 14

Menu #2
ID : 8
Codec ID : text
Duration : 1h 39mn
Language : English
Encoded date : UTC 2018-02-13 09:08:34
Tagged date : UTC 2018-02-13 09:08:34
Menu For : 2,1
00:00:00.000 : Chapter 1
00:08:08.530 : Chapter 2
00:16:08.092 : Chapter 3
00:21:44.053 : Chapter 4
00:27:40.159 : Chapter 5
00:32:47.424 : Chapter 6
00:40:49.030 : Chapter 7
00:47:57.166 : Chapter 8
00:52:27.895 : Chapter 9
01:00:08.730 : Chapter 10
01:08:37.363 : Chapter 11
01:15:23.102 : Chapter 12
01:26:24.846 : Chapter 13
01:33:34.943 : Chapter 14
Bit rate mode : VBR
x264 [info]: frame I:1221 Avg QP:17.33 size:261028
x264 [info]: frame P:35032 Avg QP:20.90 size: 78312
x264 [info]: frame B:107170 Avg QP:22.25 size: 27237
x264 [info]: consecutive B-frames: 2.3% 4.5% 16.9% 21.0% 23.3% 26.7% 4.4% 0.3% 0.3% 0.1% 0.0% 0.0% 0.0% 0.0% 0.0% 0.0% 0.2%
x264 [info]: mb I I16..4: 5.5% 87.6% 6.9%
x264 [info]: mb P I16..4: 1.7% 16.1% 1.0% P16..4: 48.2% 13.8% 9.2% 0.1% 0.0% skip: 9.8%
x264 [info]: mb B I16..4: 0.1% 1.7% 0.1% B16..8: 43.6% 6.6% 1.4% direct: 6.7% skip:39.7% L0:45.4% L1:42.7% BI:11.9%
x264 [info]: 8x8 transform intra:86.9% inter:74.5%
x264 [info]: direct mvs spatial:97.5% temporal:2.5%
x264 [info]: coded y,uvDC,uvAC intra: 86.7% 89.3% 67.2% inter: 23.5% 35.4% 10.8%
x264 [info]: i16 v,h,dc,p: 18% 14% 16% 53%
x264 [info]: i8 v,h,dc,ddl,ddr,vr,hd,vl,hu: 13% 9% 16% 8% 11% 11% 11% 10% 11%
x264 [info]: i4 v,h,dc,ddl,ddr,vr,hd,vl,hu: 11% 7% 3% 10% 15% 16% 14% 12% 12%
x264 [info]: i8c dc,h,v,p: 54% 17% 16% 12%
x264 [info]: Weighted P-Frames: Y:1.0% UV:0.7%
x264 [info]: ref P L0: 55.5% 12.2% 24.0% 8.1% 0.2% 0.0%
x264 [info]: ref B L0: 85.6% 12.4% 2.0%
x264 [info]: ref B L1: 95.6% 4.4%
x264 [info]: kb/s:7998.96

Apple TV, iPad, iPhone, iPod Touch.
Windows VLC media player

 ·  , , FAQ-
:  [ 13--2018 13:12 ]

  

.torrent

.torrent 65 KB


: 6.51 GB
(hash) : 45c4d83368bdbaeefdc74b6f883cfa3768078ba6
··
...

[ATV3] , , ! 2 Daddys Home 2 . !

!