TV 1080i | Neelum Kinaray | Impastor

Скачать через торрент [iPad] Праздничный переполох Le sens de la fête бесплатно русская версия torrent активатор

Статистика раздачи
Размер:  1.87 GB   |    Зарегистрирован:  6 месяцев   |    .torrent скачан:  47 раз   |   
Раздают:  1  
   
загрузка...
 
Автор Сообщение

Galfimbul

avatar Galfimbul


Праздничный переполох / Le sens de la fête
-

7.084 / 10 7.10 / 10
Год выпуска: 2017
Страна: Франция, Канада, Бельгия
Жанр: Комедия
Продолжительность: 01:55:21

Перевод: Дублированный (iTunes)
Оригинальная аудиодорожка: Нет
Cубтитры: Нет
Режиссёр: Эрик Толедано
Сценарий: Оливье Накаш, Эрик Толедано
Продюсер: Николя Дюваль-Адассовски, Лоран Зэйтун, Ян Зеноу
Оператор: Давид Шизалле
Композитор: Авишай Коэн
Художник: Николя де Буакуийе, Седрик Анри, Матьё Вадпьед
Монтаж: Дориан Ригаль-Ансу
В ролях: Жан-Пьер Бакри, Жан-Поль Рув, Жиль Леллуш, Венсан Макен, Эй Айдара, Сюзанн Клеман, Элбан Иванов, Элен Венсан, Бенжамен Лаверн, Жюдит Шемла

Бюджет: €14 850 000
Сборы в России: $861 294

Мировая премьера: 5 июля 2017
Премьера (РФ): 1 января 2018, «Capella Film», «Пионер»

Цифровой релиз: 01 февраля 2018, «Capella Film»

Описание: Макс, организатор мероприятий, должен провести свадьбу в замке 17 века. Под его контролем всё: банкет, фотограф, повара и официанты. Казалось бы, что может пойти не так? Но, как известно, если что-то может случиться — оно обязательно случается.
Качество исходника: WEB-DL 1080p (NNMClub)
Качество: WEB-DLRip
Тип: SD (576p)
Контейнер: M4V
Видео: H.264, 1024x576, 16:9, 2 200 Kbps, 23.976 fps

Аудио: Русский/Дублированный (iTunes), AAC / 2.0 / 128 Kbps / 48.0 KHz
Sort Name: Праздничный переполох
XID: Apple:vendor_id:2017-977482
contentID: 1334764892
Copyright: © 2018 Capella Film
Screenwriters: Оливье Накаш, Эрик Толедано
Producers: Николя Дюваль-Адассовски, Лоран Зэйтун, Ян Зеноу
Director: Оливье Накаш & Эрик Толедано
Cast: Жан-Пьер Бакри, Жан-Поль Рув, Жиль Леллуш, Венсан Макень, Эй Айдара, Сюзанн Клеман, Элбан Иванов, Элен Венсан, Бенжамен Лаверн, Жюдит Шемла
Studio: A Plus Image 7, Canal + [fr], Cine, Compagnie Cinematographique La, Entourage Pictures, Gaumont, Main Journey, Panache Productions, Quad Productions, Ten Films, TF1, TF1 Films Production
Rating: 135
Long Description: Макс, организатор мероприятий, должен провести свадьбу в замке 17 века. Под его контролем всё: банкет, фотограф, повара и официанты. Казалось бы, что может пойти не так? Но, как известно, если что-то может случиться — оно обязательно случается.
Description: Макс, организатор мероприятий, должен провести свадьбу в замке 17 века. Под его контролем всё: банкет, фотограф, повара и официанты.
Release Date: 2018-01-01T08:00:00Z
Genre: Комедии
Artist: Оливье Накаш & Эрик Толедано
Name: Праздничный переполох
General
Complete name : /Users/imac/HandBrake/Prazdnichny.perepoloh.(SD).(pk).m4v
Format : MPEG-4
Codec ID : M4V
File size : 1.87 GiB
Duration : 1h 55mn
Overall bit rate mode : Variable
Overall bit rate : 2 320 Kbps
Movie name : Праздничный переполох
Performer : Оливье Накаш & Эрик Толедано
Director : Оливье Накаш & Эрик Толедано
Actor : Жан-Пьер Бакри / Жан-Поль Рув / Жиль Леллуш / Венсан Макень / Эй Айдара / Сюзанн Клеман / Элбан Иванов / Элен Венсан / Бенжамен Лаверн / Жюдит Шемла
Screenplay by : Оливье Накаш / Эрик Толедано
Producer : Николя Дюваль-Адассовски / Лоран Зэйтун / Ян Зеноу
Production studio : A Plus Image 7, Canal + [fr], Cine, Compagnie Cinematographique La, Entourage Pictures, Gaumont, Main Journey, Panache Productions, Quad Productions, Ten Films, TF1, TF1 Films Production
Genre : Комедии
ContentType : Short Film
Description : Макс, организатор мероприятий, должен провести свадьбу в замке 17 века. Под его контролем всё: банкет, фотограф, повара и официанты.
Recorded date : UTC 2018-01-01 08:00:00
Encoded date : UTC 2018-02-03 21:14:20
Tagged date : UTC 2018-02-03 21:15:06
Copyright : © 2018 Capella Film
Cover : Yes
Rating : None
Title/Sort : Праздничный переполох
LongDescription : Макс, организатор мероприятий, должен провести свадьбу в замке 17 века. Под его контролем всё: банкет, фотограф, повара и официанты. Казалось бы, что может пойти не так? Но, как известно, если что-то может случиться — оно обязательно случается.
AppleStoreCatalogID : 1334764892
Vendor : Apple:vendor_id:2017-977482
ContentRating : ru-movie|16+|375|

Video #1
ID : 1
Format : AVC
Format/Info : Advanced Video Codec
Format profile : [email protected]
Format settings, CABAC : Yes
Format settings, ReFrames : 9 frames
Codec ID : avc1
Codec ID/Info : Advanced Video Coding
Duration : 1h 55mn
Source duration : 1h 55mn
Bit rate : 2 200 Kbps
Width : 1 024 pixels
Height : 576 pixels
Display aspect ratio : 16:9
Frame rate mode : Variable
Frame rate : 23.976 fps
Minimum frame rate : 23.974 fps
Maximum frame rate : 23.981 fps
Color space : YUV
Chroma subsampling : 4:2:0
Bit depth : 8 bits
Scan type : Progressive
Bits/(Pixel*Frame) : 0.156
Stream size : 1.76 GiB (94%)
Source stream size : 1.76 GiB (94%)
Title : Main Program
Writing library : x264 core 148 r2708 86b7198
Encoding settings : cabac=1 / ref=9 / deblock=1:0:0 / analyse=0x3:0x113 / me=umh / subme=9 / psy=1 / psy_rd=1.00:0.00 / mixed_ref=1 / me_range=32 / chroma_me=1 / trellis=1 / 8x8dct=1 / cqm=0 / deadzone=21,11 / fast_pskip=1 / chroma_qp_offset=-2 / threads=18 / lookahead_threads=2 / sliced_threads=0 / nr=0 / decimate=1 / interlaced=0 / bluray_compat=0 / constrained_intra=0 / bframes=6 / b_pyramid=2 / b_adapt=2 / b_bias=0 / direct=1 / weightb=1 / open_gop=0 / weightp=2 / keyint=240 / keyint_min=24 / scenecut=40 / intra_refresh=0 / rc_lookahead=40 / rc=2pass / mbtree=1 / bitrate=2200 / ratetol=1.0 / qcomp=0.60 / qpmin=0 / qpmax=69 / qpstep=4 / cplxblur=20.0 / qblur=0.5 / ip_ratio=1.40 / aq=1:1.00
Language : French
Encoded date : UTC 2018-02-03 21:14:20
Tagged date : UTC 2018-02-03 21:14:24
Color range : Limited
Color primaries : BT.709
Transfer characteristics : BT.709
Matrix coefficients : BT.709

Video #2
ID : 4
Format : JPEG
Codec ID : jpeg
Duration : 1h 55mn
Bit rate mode : Variable
Bit rate : 854 bps
Width : 640 pixels
Height : 360 pixels
Display aspect ratio : 16:9
Frame rate mode : Variable
Frame rate : 0.002 fps
Minimum frame rate : 0.001 fps
Maximum frame rate : 0.003 fps
Color space : YUV
Chroma subsampling : 4:2:0
Bit depth : 8 bits
Compression mode : Lossy
Bits/(Pixel*Frame) : 1.853
Stream size : 886 KiB (0%)
Title : Chapter Images
Language : French
Encoded date : UTC 2018-02-03 21:14:31
Tagged date : UTC 2018-02-03 21:14:32

Audio
ID : 2
Format : AAC
Format/Info : Advanced Audio Codec
Format profile : LC
Codec ID : 40
Duration : 1h 55mn
Source duration : 1h 55mn
Bit rate mode : Variable
Bit rate : 124 Kbps
Maximum bit rate : 195 Kbps
Channel(s) : 2 channels
Channel positions : Front: L R
Sampling rate : 48.0 KHz
Compression mode : Lossy
Stream size : 102 MiB (5%)
Source stream size : 102 MiB (5%)
Title : Russian Stereo
Language : Russian
Encoded date : UTC 2018-02-03 21:14:20
Tagged date : UTC 2018-02-03 21:14:27

Menu #1
00:00:00.000 : Chapter 1
00:07:14.875 : Chapter 2
00:13:47.791 : Chapter 3
00:21:04.624 : Chapter 4
00:29:14.165 : Chapter 5
00:34:56.248 : Chapter 6
00:40:55.289 : Chapter 7
00:46:51.830 : Chapter 8
00:53:42.705 : Chapter 9
01:00:00.371 : Chapter 10
01:05:17.204 : Chapter 11
01:11:01.662 : Chapter 12
01:16:25.370 : Chapter 13
01:22:00.745 : Chapter 14
01:27:22.245 : Chapter 15
01:34:25.536 : Chapter 16
01:42:00.661 : Chapter 17

Menu #2
ID : 3
Codec ID : text
Duration : 1h 55mn
Language : French
Encoded date : UTC 2018-02-03 21:14:27
Tagged date : UTC 2018-02-03 21:14:27
00:00:00.000 : Chapter 1
00:07:14.875 : Chapter 2
00:13:47.791 : Chapter 3
00:21:04.624 : Chapter 4
00:29:14.165 : Chapter 5
00:34:56.248 : Chapter 6
00:40:55.289 : Chapter 7
00:46:51.830 : Chapter 8
00:53:42.705 : Chapter 9
01:00:00.371 : Chapter 10
01:05:17.204 : Chapter 11
01:11:01.662 : Chapter 12
01:16:25.370 : Chapter 13
01:22:00.745 : Chapter 14
01:27:22.245 : Chapter 15
01:34:25.536 : Chapter 16
01:42:00.661 : Chapter 17
Bit rate mode : VBR
x264 [info]: frame I:1282  Avg QP:15.30  size: 78986
x264 [info]: frame P:44941 Avg QP:18.43  size: 23442
x264 [info]: frame B:119715 Avg QP:20.97  size:  6180
x264 [info]: consecutive B-frames:  3.0%  5.2%  6.9% 67.4%  7.9%  7.9%  1.8%
x264 [info]: mb I  I16..4:  9.1% 64.6% 26.3%
x264 [info]: mb P  I16..4:  1.3%  8.1%  2.3%  P16..4: 39.1% 24.3% 14.5%  0.0%  0.0%    skip:10.4%
x264 [info]: mb B  I16..4:  0.1%  0.7%  0.2%  B16..8: 39.1%  8.5%  2.4%  direct: 3.8%  skip:45.1%  L0:39.6% L1:48.5% BI:11.9%
x264 [info]: 8x8 transform intra:68.6% inter:70.9%
x264 [info]: coded y,uvDC,uvAC intra: 83.2% 86.0% 62.3% inter: 22.8% 19.6% 2.8%
x264 [info]: i16 v,h,dc,p: 26% 11%  6% 57%
x264 [info]: i8 v,h,dc,ddl,ddr,vr,hd,vl,hu: 15%  7%  3%  9% 13% 15% 12% 14% 11%
x264 [info]: i4 v,h,dc,ddl,ddr,vr,hd,vl,hu: 15%  7%  2%  9% 14% 16% 13% 12% 11%
x264 [info]: i8c dc,h,v,p: 38% 19% 24% 19%
x264 [info]: Weighted P-Frames: Y:4.2% UV:2.7%
x264 [info]: ref P L0: 56.7% 13.1% 13.3%  5.0%  3.7%  2.8%  2.4%  1.4%  1.5%  0.1%  0.0%
x264 [info]: ref B L0: 83.0%  8.0%  3.9%  1.8%  1.3%  1.1%  0.7%  0.3%
x264 [info]: ref B L1: 96.3%  3.7%
x264 [info]: kb/s:2190.02

Релиз подготовлен для просмотра на Apple TV, iPad, iPhone, iPod Touch.
Для просмотра данного релиза на компьютере с ОС Windows рекомендуется использовать VLC media player

Трекер:  [ 13-Фев-2018 00:12 ]

  

Скачать .torrent

Размер .torrent файла 38 KB


Размер: 1.87 GB
Хэш (hash) релиза: 7d8e66a1ae412121a3e6591ac2f15e9fc0b2a076

Еще никто не оставлял запись к записи скачать торрент [iPad] Праздничный переполох Le sens de la fête . Будь первым!

!Обратная связь