Bande-annonce Bow To Blood : Triomphez des dangers de l'arène (en VR) | Chapter 60 : Road to North | ThemeForest Premium Wordpress Portfolio Templates V-2

Скачать через торрент Лабиринты Серии: 1 из 16 Фильм бесплатно в хорошем качестве torrent

Скачивайте на UnionPeer.org фильмы через торрент без регистрации. Новинки кино в хорошем качестве через торрент. На UnionPeer.org можно скачать через торрент фильмы 2014 и 2015 годов. Самые новые фильмы.

Скачать торрент Лабиринты Серии: 1 из 16 бесплатно через .torrent фильм мультфильм сериал

Статистика раздачи
Размер:  600 MB   |    Зарегистрирован:  6 месяцев   |    .torrent скачан:  37 раз   |   
Раздают:  1  
   
загрузка...
 
Автор Сообщение

Galfimbul

avatar Galfimbul


Лабиринты

Год выпуска: 2017
Производство: «ВИМ СТУДИО»
Жанр: мелодрама
Продолжительность: ~00:45:00 серия
Субтитры: нет

Режиссёр: Юрий Владовский

В ролях: Дмитрий Пчела, Елена Вожакина, Татьяна Лютаева, Роман Полянский, Полина Филоненко, Сергей Паршин, Артур Литвинов, Стефан Отто, Ник Тихонов, Антон Багмет, Елена Крайняя, Андрей Курносов

Описание: У Марины (Елена Вожакина) в жизни все хорошо. Успешная карьера в крупной компании, любящий муж Сергей и родители (Татьяна Лютаева и Сергей Паршин). Омрачает счастье героини только одно – она уже десять лет замужем, но никак не может забеременеть, не помогает даже ЭКО. Медицинских причин для этого нет, врачи лишь разводят руками. Марина же все больше винит себя. Она уверена, что причина ее бесплодия – давний аборт, который она сделала еще в молодости. Марина решается на усыновление, но муж отказывается воспитывать чужого ребенка, с чужими генами. Героиня не подозревает, в чем истинная причина такой категоричности супруга.

Реклама: Нет.

Кинопоиск
Все раздачи сериала
Sample

Качество: WEBRip - Files-x
Формат: AVI
Видео кодек: XviD
Аудио кодек: AC3
Видео: 720x400 (1.80:1), 25 fps, XviD build 73 ~1650 kbps avg, 0.227 bit/pixel
Аудио: 48.0 kHz, AC3 Dolby Digital, 2/0 (L,R) ch, ~ 192 kbps
Раздача ведётся путём добавления новых серий, при каждом добавлении создаётся новый торрент. Чтобы начать докачку новой серии, пользователям необходимо сделать следующее:

- Остановить скачивание.
- Удалить старый торрент у себя из клиента (старые серии удалять не надо).
- Скачать новый торрент и запустить его у себя в клиенте вместо старого, при этом указать клиенту путь в старую папку куда и должно происходить скачивание новых серий.

Ваш клиент при этом должен произвести хеширование (проверку) старой папки (если не производит сам - помогите ему сделать это), и будет докачивать только те серии которых у вас ещё нет. Старые серии при этом не удаляются, а продолжают раздаваться!
Если вы уже удалили старые серии, то предотвратить повторную закачку старых серий можно, отжав галочку в соответствующих местах при запуске нового торрента. По возможности, желательно не удалять старые серии как можно дольше, чтобы релизер не столько продолжал раздавать старые серии, а смог сконцентрироваться на новых.
General
Complete name : D:\Labirinty.2017.WEB-DLRip.Files-x\01.Labirinty.2017.WEB-DLRip.Files-x.avi
Format : AVI
Format/Info : Audio Video Interleave
File size : 600 MiB
Duration : 45mn 36s
Overall bit rate : 1 839 Kbps
Writing application : VirtualDubMod 1.5.10.3 | www.virtualdub-fr.org || (build 2550/release)
Writing library : VirtualDubMod build 2550/release

Video
ID : 0
Format : MPEG-4 Visual
Format profile : Advanced [email protected]
Format settings, BVOP : 1
Format settings, QPel : No
Format settings, GMC : No warppoints
Format settings, Matrix : Custom
Codec ID : XVID
Codec ID/Hint : XviD
Duration : 45mn 36s
Bit rate : 1 637 Kbps
Width : 720 pixels
Height : 400 pixels
Display aspect ratio : 16:9
Frame rate : 25.000 fps
Color space : YUV
Chroma subsampling : 4:2:0
Bit depth : 8 bits
Scan type : Progressive
Compression mode : Lossy
Bits/(Pixel*Frame) : 0.227
Stream size : 534 MiB (89%)
Writing library : XviD 73

Audio
ID : 1
Format : AC-3
Format/Info : Audio Coding 3
Mode extension : CM (complete main)
Format settings, Endianness : Big
Codec ID : 2000
Duration : 45mn 36s
Bit rate mode : Constant
Bit rate : 192 Kbps
Channel count : 2 channels
Channel positions : Front: L R
Sampling rate : 48.0 KHz
Bit depth : 16 bits
Compression mode : Lossy
Stream size : 62.6 MiB (10%)
Alignment : Split accross interleaves
Interleave, duration : 40 ms (1.00 video frame)
Interleave, preload duration : 500 ms


Трекер:  [ 12-Фев-2018 23:48 ]

  

Скачать .torrent

Размер .torrent файла 12 KB


Размер: 600 MB
Хэш (hash) релиза: 4019d2b78b9336012dec39ab1a20559802649f0e
Подписка на обновления:

Торренты, похожие на Лабиринты Серии: 1 из 16 скачать торрент

Форум Название Автор Размер S L Добавлен
Российские сериалы ·· Лабиринты / Серии: 1-3 из 16 (Юрий Владовский) [2017, мелодрама, WEBRip-AVC] Galfimbul 18623769461.73 GB 0 0 1518529815

16:50

13-Фев-18

Еще никто не оставлял запись к записи скачать торрент Лабиринты Серии: 1 из 16 . Будь первым!

!Обратная связь