xã hội đen | Ulyana Chan | Smocze opowieści / Dragon Tales

Скачать через торрент Абсолютная безопасность Тотальная защита Фильм бесплатно в хорошем качестве torrent

Скачивайте на UnionPeer.org фильмы через торрент без регистрации. Новинки кино в хорошем качестве через торрент. На UnionPeer.org можно скачать через торрент фильмы 2014 и 2015 годов. Самые новые фильмы.

Скачать торрент Абсолютная безопасность Тотальная защита бесплатно через .torrent фильм мультфильм сериал

Статистика раздачи
Размер:  1.37 GB   |    Зарегистрирован:  3 месяца 13 дней   |    .torrent скачан:  28 раз   |   
Раздают:  1  
   
загрузка...
 
Автор Сообщение

Galfimbul

avatar Galfimbul


Абсолютная безопасность / Тотальная защита / Total Security

Год выпуска: 1997
Страна: США
Жанр: боевик, драма, криминал
Продолжительность: 00:45:00

Перевод: Авторский (одноголосый закадровый) ??

Режиссёр: Джо Энн Фогл / Joe Ann Fogle, Дуан Кларк / Duane Clark

В ролях: Джеймс Римар
Джеймс Белуши
Дебра Фарентино
Трэйси Нихэм
Билл Брочтруп
Флекс Александр
Тони Плана
Кристин Бауэр
Джейсон Биггз

Описание: "Total Security" ("Абсолютная безопасность") представляет собой высокотехнологичное охранное агентство, задачами которого являются: обеспечение личной безопасности, розыск пропавших без вести, наблюдение, проверка на возможные угрозы и т.д. Агентство находится в ведении Фрэнка Циско, бывшего полицейского. Сотрудниками агентства являются: Нэвилл - технический эксперт, бухгалтер Джордж, который всегда стремится получить богатых клиентов, симпатичная блондинка Элли, недавно овдовевшая Джоди и грудастая секретарша Женева. Неохотно, Фрэнк нанимает на работу своего приятеля Стива Вэгмана. Не будучи высоконравственным человеком и являясь слишком одержимым противоположным полом, Вэгман представляет из себя полную противоположность Циско, но тем не менее, его достаточно жесткий характер все-таки пригодится во многих случаях агентству при решении задач.
Джеймс Ремар, Джеймс Белуши, Дебра Фарентино и Трэйси Нидхэм были главными звездами этого "беззаботного", но развлекательного шоу, которое представляет собой смесь детективной драмы и комедийных элементов.

Доп. информация: Оцифровку любезно предоставил ALEX150379

Релиз

Сэмпл: http://yadi.sk/i/svKNhkwy3SL3Xx

Качество: VHSRip
Формат: AVI
Видео: 704x528 (1.33:1), 25 fps, XviD build 73 ~1979 kbps avg, 0.21 bit/pixel
Аудио: 48 kHz, AC3 Dolby Digital, 2/0 (L,R) ch, ~192 kbps
Субтитры: Отсутствуют

Реклама:
Отсутствует
Тотальная защита Total Security [by Edich2]\Total Security.avi
Format : AVI
Format/Info : Audio Video Interleave
File size : 783 MiB
Duration : 50 min 10 s
Overall bit rate : 2 182 kb/s
Writing application : VirtualDubMod 1.5.10.2 (build 2540/release)
Writing library : VirtualDubMod build 2540/release

Video
ID : 0
Format : MPEG-4 Visual
Format profile : Advanced [email protected]
Format settings, BVOP : 2
Format settings, QPel : No
Format settings, GMC : No warppoints
Format settings, Matrix : Custom
Codec ID : XVID
Codec ID/Hint : XviD
Duration : 50 min 10 s
Bit rate : 1 980 kb/s
Width : 704 pixels
Height : 528 pixels
Display aspect ratio : 4:3
Frame rate : 25.000 FPS
Color space : YUV
Chroma subsampling : 4:2:0
Bit depth : 8 bits
Scan type : Progressive
Compression mode : Lossy
Bits/(Pixel*Frame) : 0.213
Stream size : 711 MiB (91%)
Writing library : XviD 73

Audio
ID : 1
Format : AC-3
Format/Info : Audio Coding 3
Format settings, Endianness : Big
Codec ID : 2000
Duration : 50 min 10 s
Bit rate mode : Constant
Bit rate : 192 kb/s
Channel(s) : 2 channels
Channel positions : Front: L R
Sampling rate : 48.0 kHz
Frame rate : 31.250 FPS (1536 spf)
Bit depth : 16 bits
Compression mode : Lossy
Stream size : 68.9 MiB (9%)
Alignment : Split accross interleaves
Interleave, duration : 40 ms (1.00 video frame)
Interleave, preload duratio : 500 ms
Service kind : Complete Main
Предыдущие и альтернативные раздачи

Трекер:  [ 12-Фев-2018 20:48 ]

  

Скачать .torrent

Размер .torrent файла 14 KB


Размер: 1.37 GB
Хэш (hash) релиза: 9d1ae1669b99b35fe5d704c61780e15124120fe0
Подписка на обновления:

Еще никто не оставлял запись к записи скачать торрент Абсолютная безопасность Тотальная защита . Будь первым!

!Обратная связь