300 en castellano ,latino ,sub | Freehold (2017) northernvirginiaskindocs.com Nonton Film Freehold (2017) Subtitle Indonesia-English Streaming Online,Download Film Freehold (2017) northernvirginiaskindocs.com , An oily, amoral estate agent is preyed upon by one of his victims, who quietly moves into his flat and, unseen, begins a deliciously malicious campaign of revenge. Two Pigeons is a dark comedy with a sinister streak. | Mort Mills

Скачать через торрент Сердце Дикси Зои Харт из южного штата Фильм бесплатно в хорошем качестве torrent

Скачивайте на UnionPeer.org фильмы через торрент без регистрации. Новинки кино в хорошем качестве через торрент. На UnionPeer.org можно скачать через торрент фильмы 2014 и 2015 годов. Самые новые фильмы.

Скачать торрент Сердце Дикси Зои Харт из южного штата бесплатно через .torrent фильм мультфильм сериал

Статистика раздачи
Размер:  513 MB   |    Зарегистрирован:  3 месяца 10 дней   |    .torrent скачан:  33 раза   |   
Раздают:  1  
   
загрузка...
 
Автор Сообщение

Galfimbul

avatar Galfimbul


Сердце Дикси / Зои Харт из южного штата / Hart of Dixie
Год выпуска: 2014
Страна: США | The CW
Жанр: драма, мелодрама, комедия
Продолжительность: ~ 42 минуты

Перевод: Любительский (одноголосый закадровый) DexterTV

Режиссёр: Дэвид Пэймер, Джо Лазаров, Тим Мэтисон

В ролях: Рэйчел Билсон, Джейми Кинг, Кресс Уильямс, Уилсон Бетел, Скотт Портер, Дебора С. Крэйг, Тим Мэтисон, Реджинальд ВелДжонсон, Росс Филипс, Эйза Дэвис и др.

Описание: Она молода и амбициозна, и, без сомнения, очень талантливый нью-йоркский хирург. Но, вожделенное место в кардиохирургии ей не достаётся, по той лишь причине, что Зои Харт излишне "бесчувственна" к своим пациентам. Что остаётся делать? Конечно же ехать в захолустный городишко на юге страны, в штате Алабама, куда её неоднократно звал этот странный доктор с самого её выпускного в колледже. И унаследовать частную семейную практику в самом сердце Дикси, населённым милыми , немного эксцентричными провинциалами...пытаясь завоевать своё место в их уютном и тёплом мире, попадая в неловкие и порою казусные ситуации из-за своего городского темперамента...

Сэмпл: http://multi-up.com/1186942

Качество: WEB-DLRip
Формат: AVI
Видео: XviD, 720x400 (16:9), 23.976 fps, ~1446 kbps, ~0.209 bit/pixel
Аудио: MP3, 48 kHz, 2 ch, ~256 kbps
Субтитры: Отсутствуют

Реклама:
В видеоряд вшита рекламная надпись
Format : AVI
Format/Info : Audio Video Interleave
File size : 513 MiB
Duration : 41 min 54 s
Overall bit rate : 1 712 kb/s
Writing application : VirtualDubMod 1.5.10.3 | www.virtualdub-fr.org || (build 2550/release)
Writing library : VirtualDub build 35576/release

Video
ID : 0
Format : MPEG-4 Visual
Format profile : Advanced [email protected]
Format settings : BVOP1
Format settings, BVOP : 1
Format settings, QPel : No
Format settings, GMC : No warppoints
Format settings, Matrix : Default (MPEG)
Codec ID : XVID
Codec ID/Hint : XviD
Duration : 41 min 54 s
Bit rate : 1 446 kb/s
Width : 720 pixels
Height : 400 pixels
Display aspect ratio : 16:9
Frame rate : 23.976 (24000/1001) FPS
Original frame rate : 23.976 (23976/1000) FPS
Color space : YUV
Chroma subsampling : 4:2:0
Bit depth : 8 bits
Scan type : Progressive
Compression mode : Lossy
Bits/(Pixel*Frame) : 0.209
Stream size : 434 MiB (84%)
Writing library : XviD 1.2.1 (UTC 2008-12-04)

Audio
ID : 1
Format : MPEG Audio
Format version : Version 1
Format profile : Layer 3
Codec ID : 55
Codec ID/Hint : MP3
Duration : 41 min 54 s
Bit rate mode : Constant
Bit rate : 256 kb/s
Channel(s) : 2 channels
Sampling rate : 48.0 kHz
Compression mode : Lossy
Stream size : 76.7 MiB (15%)
Alignment : Split accross interleaves
Interleave, duration : 42 ms (1.00 video frame)
Interleave, preload duratio : 500 ms
Предыдущие и альтернативные раздачи

Трекер:  [ 12-Фев-2018 20:18 ]

  

Скачать .torrent

Размер .torrent файла 10 KB


Размер: 513 MB
Хэш (hash) релиза: d46347c33e927b83c01f496e742056054b141e76
Подписка на обновления:

Еще никто не оставлял запись к записи скачать торрент Сердце Дикси Зои Харт из южного штата . Будь первым!

!Обратная связь