Baadshaho | Urasawa Naoki NHK E Manben Special - Higashimura Akiko | Geoffrey Rush

Скачать через торрент Крепость Бадабер Серии: 1 из 4 Фильм бесплатно в хорошем качестве torrent

Скачивайте на UnionPeer.org фильмы через торрент без регистрации. Новинки кино в хорошем качестве через торрент. На UnionPeer.org можно скачать через торрент фильмы 2014 и 2015 годов. Самые новые фильмы.

Скачать торрент Крепость Бадабер Серии: 1 из 4 бесплатно через .torrent фильм мультфильм сериал

Если у вас наблюдаются проблемы со скриншотами, переходом по ссылками, скачиванием торрентов - проблемы в блокировщике рекламы AdBlock. #хорошегоДня!


Статистика раздачи
Размер:  1.26 GB   |    Зарегистрирован:  5 дней   |    .torrent скачан:  68 раз   |   
Раздают:  1  
   
Загрузка...
 
Автор Сообщение

Galfimbul

avatar Galfimbul


Крепость Бадабер

Год выпуска: 2017
Производство: «Киностудия КИТ» и «Продюсерский центр Иван»
Жанр: драма, военный
Продолжительность: ~00:48:00 серия
Субтитры: нет

Режиссёр: Кирилл Белевич

В ролях: Сергей Марин, Светлана Иванова, Ирина Розанова, Сергей Колесников , Станислав Курач, Александр Фисенко, Виталий Кищенко, Илья Маланин, Рамиль Сабитов, Микаэл Джанибекян, Данил Можаев, Александр Алёшкин, Константин Балакирев, Дмитрий Соколов , Артём Мельничук, Всеволод Шергин, Никита Кологривый

Описание: Фильм о событиях, произошедших во время Афганской войны. В центре сюжета - восстание в лагере Бадабер. Весна 1985-ого. По заданию ГРУ разведчик Юрий Никитин проникает в пакистанскую крепость Бадабер. Никитин должен собрать доказательства существования здесь центра подготовки моджахедов под руководством ЦРУ. Выполнив опасное задание, Никитин видит на территории крепости группу русских военнопленных, среди которых узнает своего друга Михаила, сына своего командира генерала Колесова, несколько лет считавшегося пропавшим без вести. Никитин решает остаться и спасти обреченных на смерть ребят....

Реклама: Нет.



Sample

Качество: HDTVRip 720p - olegka7373 (GeneralFilm)
Формат: MKV
Видео кодек: H.264
Аудио кодек: AC3
Видео: MPEG4 AVC Video, H264, 16:9, 1280x720, 25 fps, ~3500 kbps, 0.152 bit/pixel
Аудио: AC3 Dolby Digital, 48 kHz, 2/0 (L,R) ch, 192 kbps
Раздача ведётся путём добавления новых серий, при каждом добавлении создаётся новый торрент. Чтобы начать докачку новой серии, пользователям необходимо сделать следующее:

- Остановить скачивание.
- Удалить старый торрент у себя из клиента (старые серии удалять не надо).
- Скачать новый торрент и запустить его у себя в клиенте вместо старого, при этом указать клиенту путь в старую папку куда и должно происходить скачивание новых серий.

Ваш клиент при этом должен произвести хеширование (проверку) старой папки (если не производит сам - помогите ему сделать это), и будет докачивать только те серии которых у вас ещё нет. Старые серии при этом не удаляются, а продолжают раздаваться!
Если вы уже удалили старые серии, то предотвратить повторную закачку старых серий можно, отжав галочку в соответствующих местах при запуске нового торрента. По возможности, желательно не удалять старые серии как можно дольше, чтобы релизер не столько продолжал раздавать старые серии, а смог сконцентрироваться на новых.
General
Unique ID : 236051560252412837478363028742266083993 (0xB195E077FE28C559951848A8A3DEDA99)
Complete name : D:\Krepost Badaber.HDTVRip.(720p).GeneralFilm\01.Krepost Badaber.HDTVRip.(720p).GeneralFilm.mkv
Format : Matroska
Format version : Version 2
File size : 1.26 GiB
Duration : 48mn 46s
Overall bit rate : 3 694 Kbps
Encoded date : UTC 2018-02-12 16:42:19
Writing application : mkvmerge v6.1.0 ('Old Devil') built on Mar 4 2013 09:10:42
Writing library : libebml v1.3.0 + libmatroska v1.4.0

Video
ID : 1
Format : AVC
Format/Info : Advanced Video Codec
Format profile : [email protected]
Format settings, CABAC : Yes
Format settings, ReFrames : 9 frames
Codec ID : V_MPEG4/ISO/AVC
Duration : 48mn 46s
Bit rate : 3 500 Kbps
Width : 1 280 pixels
Height : 720 pixels
Display aspect ratio : 16:9
Frame rate mode : Constant
Frame rate : 25.000 fps
Color space : YUV
Chroma subsampling : 4:2:0
Bit depth : 8 bits
Scan type : Progressive
Bits/(Pixel*Frame) : 0.152
Stream size : 1.17 GiB (93%)
Writing library : x264 core 130 r2273 b3065e6
Encoding settings : cabac=1 / ref=9 / deblock=1:-2:-1 / analyse=0x3:0x133 / me=umh / subme=9 / psy=1 / psy_rd=1.00:0.15 / mixed_ref=1 / me_range=32 / chroma_me=1 / trellis=2 / 8x8dct=1 / cqm=0 / deadzone=21,11 / fast_pskip=0 / chroma_qp_offset=-3 / threads=18 / lookahead_threads=3 / sliced_threads=0 / nr=0 / decimate=0 / interlaced=0 / bluray_compat=0 / constrained_intra=0 / bframes=9 / b_pyramid=2 / b_adapt=2 / b_bias=0 / direct=3 / weightb=1 / open_gop=0 / weightp=2 / keyint=250 / keyint_min=25 / scenecut=40 / intra_refresh=0 / rc=2pass / mbtree=0 / bitrate=3500 / ratetol=1.0 / qcomp=0.60 / qpmin=0 / qpmax=69 / qpstep=4 / cplxblur=20.0 / qblur=0.5 / ip_ratio=1.40 / pb_ratio=1.30 / aq=2:1.00
Default : Yes
Forced : No
Color primaries : BT.709
Transfer characteristics : BT.709
Matrix coefficients : BT.709

Audio
ID : 2
Format : AC-3
Format/Info : Audio Coding 3
Mode extension : CM (complete main)
Format settings, Endianness : Big
Codec ID : A_AC3
Duration : 48mn 46s
Bit rate mode : Constant
Bit rate : 192 Kbps
Channel count : 2 channels
Channel positions : Front: L R
Sampling rate : 48.0 KHz
Bit depth : 16 bits
Compression mode : Lossy
Stream size : 67.0 MiB (5%)
Default : Yes
Forced : No


Трекер:  [ 12-Фев-2018 20:18 ]

  

Скачать .torrent

Размер .torrent файла 13 KB


Размер: 1.26 GB
Хэш (hash) релиза: 26c39a5b7ffae423878bd1ce5c98c55a50979c61
Подписка на обновления:

Торренты, похожие на Крепость Бадабер Серии: 1 из 4 скачать торрент

Форум Название Автор Размер S L Добавлен
Российские сериалы ·· Крепость Бадабер / Серии: 1 из 4 (Кирилл Белевич) [2017, драма, военный, HDTV 1080i] Galfimbul 39854010963.71 GB 0 0 1518452516

19:21

12-Фев-18

Российские сериалы ·· Крепость Бадабер / Серии: 1 из 4 (Кирилл Белевич) [2017, Военный, драма, SATRip] Galfimbul 677447680646 MB 0 0 1518447078

17:51

12-Фев-18

Российские сериалы ·· Крепость Бадабер (Бадабер) / Серии: 1-4 из 4 (Кирилл Белевич) [2017,драма, военный, SATRip-AVC] aleksan55 25423328282.37 GB 3 0 1518447200

17:53

12-Фев-18

Еще никто не оставлял запись к записи скачать торрент Крепость Бадабер Серии: 1 из 4 . Будь первым!

!Обратная связь