driver booster 2 free download for windows 7 | Mariska Hargitay | Psicologia 2o bach lomce pack teoria y practica

Скачать через торрент Родина Homeland Фильм бесплатно в хорошем качестве torrent

Скачивайте на UnionPeer.org фильмы через торрент без регистрации. Новинки кино в хорошем качестве через торрент. На UnionPeer.org можно скачать через торрент фильмы 2014 и 2015 годов. Самые новые фильмы.

Скачать торрент Родина Homeland бесплатно через .torrent фильм мультфильм сериал

Если у вас наблюдаются проблемы со скриншотами, переходом по ссылками, скачиванием торрентов - проблемы в блокировщике рекламы AdBlock. #хорошегоДня!


Статистика раздачи
Размер:  5.03 GB   |    Зарегистрирован:  5 дней   |    .torrent скачан:  26 раз   |   
Раздают:  1  
   
Загрузка...
 
Автор Сообщение

Galfimbul

avatar Galfimbul


Родина / Homeland
Год выпуска: 2018
Страна: США
Жанр: триллер, драма, криминал, детектив
Продолжительность: 01:00:00
Перевод: Профессиональный (многоголосый закадровый) SDI Media по заказу Amedia
Режиссёр: Лесли Линка Глаттер, Майкл Куэста, Дэниэл Эттиэс
В ролях: Клэр Дэйнс, Элизабет Марвел, Мори Стерлинг, Лайнас Роуч, Джейк Уэбер, Морган Спектор, Мэнди Патинкин, Ф. Мюррей Абрахам
Описание: Новый сезон популярного политического триллера, скорее всего, станет предпоследним – сериал уже продлили на восьмой сезон.
Бывший агент ЦРУ Кэрри Мэтисон продолжает бороться с исламскими террористами даже после того, как возвращается в Вашингтон и начинает жить тихой гражданской жизнью в доме своей сестры. Она тяжело переживает гибель Питера Куинна, который умер от пули, предназначенной для нее, и предательство со стороны президента США Элизабет Кин. Наставника и бывшего босса Мэтисон Саула вместе с другими сотрудниками спецслужб, заключают в тюрьму по ложному обвинению и Кэрри становится в одном ряду с заговорщиками, подозревающими президента Кин в предательстве. Она начинает пристально наблюдать за действиями администрации президента.
Сэмпл: http://sendfile.su/1398406
Качество: WEB-DL 1080p
Контейнер: MKV
Видео: MPEG-4 AVC, 1920x1080 (16:9), 23.976 fps, 8634 Kbps, 0.108 bits/pixel
Аудио: 48 kHz, AC3, 2/0 (L,R) ch, ~192 kbps [Rus]
Аудио 2: 48 kHz, EAC3, 3/2 (L,C,R,l,r) + LFE ch, ~640 kbps [Eng]
Субтитры: английские
Реклама: Отсутствует
01. Enemy of the State / Враг государства
Общее
Уникальный идентификатор : 227816807302571934105742311131186256516 (0xAB63EBCD55108557867CBE03E5F0DA84)
Полное имя : D:\Родина (сезон 7) Homeland (2018) WEB-DL 1080p - Amedia\Homeland.S07E01.WEB-DL1080p.Rus.Eng.DV.Amedia.mkv
Формат : Matroska
Версия формата : Version 4 / Version 2
Размер файла : 5,03 Гбайт
Продолжительность : 59 м. 55 с.
Режим общего битрейта : Переменный
Общий поток : 12,0 Мбит/сек
Название фильма : Homeland.S07E01.WEB-DL1080p.Rus.Eng.DV.Amedia / NNM-Club
Дата кодирования : UTC 2018-02-12 12:35:15
Программа кодирования : mkvmerge v8.2.0 ('World of Adventure') 64bit
Библиотека кодирования : libebml v1.3.1 + libmatroska v1.4.2
Обложка : Yes
Attachments : Cover

Видео
Идентификатор : 1
Формат : AVC
Формат/Информация : Advanced Video Codec
Профиль формата : [email protected]
Настройки формата : CABAC / 4 Ref Frames
Параметр CABAC формата : Да
Параметр RefFrames формата : 4 кадра
Идентификатор кодека : V_MPEG4/ISO/AVC
Продолжительность : 59 м. 55 с.
Вид битрейта : Переменный
Битрейт : 11,2 Мбит/сек
Максимальный битрейт : 15,0 Мбит/сек
Ширина : 1920 пикселей
Высота : 1080 пикселей
Соотношение сторон : 16:9
Режим частоты кадров : Постоянный
Частота кадров : 23,976 (24000/1001) кадра/сек
Цветовое пространство : YUV
Субдискретизация насыщенности : 4:2:0
Битовая глубина : 8 бит
Тип развёртки : Прогрессивная
Бит/(Пиксели*Кадры) : 0.225
Размер потока : 4,68 Гбайт (93%)
Язык : English
Default : Да
Forced : Нет
Цветовой диапазон : Limited
Основные цвета : BT.709
Характеристики трансфера : BT.709
Коэффициенты матрицы : BT.709

Аудио #1
Идентификатор : 2
Формат : AC-3
Формат/Информация : Audio Coding 3
Идентификатор кодека : A_AC3
Продолжительность : 59 м. 55 с.
Вид битрейта : Постоянный
Битрейт : 192 Кбит/сек
Каналы : 2 канала
Расположение каналов : Front: L R
Частота : 48,0 КГц
Частота кадров : 31,250 кадров/сек (1536 SPF)
Битовая глубина : 16 бит
Метод сжатия : С потерями
Размер потока : 82,3 Мбайт (2%)
Заголовок : Amedia
Язык : Russian
ServiceKind/String : Complete Main
Default : Да
Forced : Нет

Аудио #2
Идентификатор : 3
Формат : AC-3
Формат/Информация : Audio Coding 3
Идентификатор кодека : A_AC3
Продолжительность : 59 м. 55 с.
Вид битрейта : Постоянный
Битрейт : 640 Кбит/сек
Каналы : 6 каналов
Расположение каналов : Front: L C R, Side: L R, LFE
Частота : 48,0 КГц
Частота кадров : 31,250 кадров/сек (1536 SPF)
Битовая глубина : 16 бит
Метод сжатия : С потерями
Размер потока : 274 Мбайт (5%)
Язык : English
ServiceKind/String : Complete Main
Default : Нет
Forced : Нет

Текст
Идентификатор : 4
Формат : UTF-8
Идентификатор кодека : S_TEXT/UTF8
Идентификатор кодека/Информация : UTF-8 Plain Text
Продолжительность : 57 м. 13 с.
Битрейт : 63 бит/сек
ElementCount : 861
Размер потока : 26,8 Кбайт (0%)
Язык : English
Default : Нет
Forced : Нет
Предыдущие и альтернативные раздачи

Трекер:  [ 12-Фев-2018 19:54 ]

  

Скачать .torrent

Размер .torrent файла 13 KB


Размер: 5.03 GB
Хэш (hash) релиза: 630f6a27ccd293b38e0d06ac257949507181a045
Подписка на обновления:

Еще никто не оставлял запись к записи скачать торрент Родина Homeland . Будь первым!

!Обратная связь