The Bodyguard 2016 CHINESE 1080p BluRay x264 AC3-JYK | CCBoot 2018 Build 0506 + Crack | Site News Announcements

Скачать через торрент Здесь и сейчас Here and Now Фильм бесплатно в хорошем качестве torrent

Скачивайте на UnionPeer.org фильмы через торрент без регистрации. Новинки кино в хорошем качестве через торрент. На UnionPeer.org можно скачать через торрент фильмы 2014 и 2015 годов. Самые новые фильмы.

Скачать торрент Здесь и сейчас Here and Now бесплатно через .torrent фильм мультфильм сериал

Статистика раздачи
Размер:  750 MB   |    Зарегистрирован:  6 месяцев   |    .torrent скачан:  30 раз   |   
Раздают:  1  
   
загрузка...
 
Автор Сообщение

Galfimbul

avatar Galfimbul


Здесь и сейчас / Here and Now
Год выпуска: 2018
Страна: США
Жанр: Драма, комедия
Продолжительность: 01:00:00
Перевод: Профессиональный (многоголосый закадровый) Amedia
Режиссёр: Ута Бризвитц, Алан Болл, Джереми Подесва
В ролях: Холли Хантер, Соси Бэйкон, , Джеррика Хинтон, Рэймонд Ли, Тим Роббинс, Дэниэл Дзоватто, Марван Салама, Джо Уильямсон, Некар Задеган
Описание: История о многонациональной семье, которая живет в США: профессоре философии Грег Бишоп, его супруге-юристе Одри, их общем ребенке и трех приёмных детях — из Вьетнама, Колумбии и Сомали. За фасадом счастливого, прогрессивного семейства таится множество проблем, к которым со временем прибавляется ещё одна напасть — один из детей начинает наблюдать необъяснимые вещи, невидимые для других.

Сэмпл: http://multi-up.com/1186935

Качество: WEB-DLRip
Формат: AVI
Видео: 720x400 (16:9), 23.976 fps, XviD, 1524 Kbps, 0.22 bits/pixe
Аудио: 48 kHz, AC3 Dolby Digital, 2 ch, 192 Kbps
Субтитры: Отсутствуют
Реклама: Отсутствует
General
Complete name : Downloads\Here.and.Now.s01e01.Amedia.avi
Format : AVI
Format/Info : Audio Video Interleave
File size : 750 MiB
Duration : 1h 0mn
Overall bit rate : 1 725 Kbps
Writing application : VirtualDubMod 1.5.10.2 (build 2540/release)
Writing library : VirtualDubMod build 2540/release
Video #0
ID : 0
Format : MPEG-4 Visual
Format profile : Advanced [email protected]
Format settings, BVOP : 2
Format settings, QPel : No
Format settings, GMC : No warppoints
Format settings, Matrix : Default (MPEG)
Codec ID : XVID
Codec ID/Hint : XviD
Duration : 1h 0mn
Bit rate : 1 524 Kbps
Width : 720 pixels
Height : 400 pixels
Display aspect ratio : 16:9
Frame rate : 23.976 fps
Color space : YUV
Chroma subsampling : 4:2:0
Bit depth : 8 bits
Scan type : Progressive
Compression mode : Lossy
Bits/(Pixel*Frame) : 0.221
Stream size : 663 MiB (88%)
Writing library : XviD 1.2.1 (UTC 2008-12-04)
Audio #1
ID : 1
Format : AC-3
Format/Info : Audio Coding 3
Mode extension : CM (complete main)
Format settings, Endianness : Big
Codec ID : 2000
Duration : 1h 0mn
Bit rate mode : Constant
Bit rate : 192 Kbps
Channel(s) : 2 channels
Channel positions : Front: L R
Sampling rate : 48.0 KHz
Bit depth : 16 bits
Compression mode : Lossy
Stream size : 83.5 MiB (11%)
Alignment : Split accross interleaves
Interleave, duration : 42 ms (1.00 video frame)
Interleave, preload duration : 500 ms
(1) остановить скачивание,
(2) удалить старый торрент у себя из клиента (старые серии удалять не надо),
(3) скачать новый торрент и запустить его у себя в клиенте вместо старого, при этом указать клиенту путь в старую папку куда и должно происходить скачивание новых серий.
Ваш клиент при этом должен произвести хеширование (проверку) старой папки (если не производит сам - помогите ему сделать это), и будет докачивать только те серии которых у вас ещё нет. Старые серии при этом не удаляются, а продолжают раздаваться!
Eсли вы уже удалили старые серии, то предотвратить повторную закачку старых серий можно, отжав галочку в соответсвующих местах при запуске нового торрента. По возможности, желательно не удалять старые серии как можно дольше чтобы релизёр не столько продолжал раздавать старые серии, а смог сконцентрироваться на новых.
Предыдущие и альтернативные раздачи

Трекер:  [ 12-Фев-2018 19:18 ]

  

Скачать .torrent

Размер .torrent файла 15 KB


Размер: 750 MB
Хэш (hash) релиза: 8905f1aa041488f126983694cdc044ee75387ee4
Подписка на обновления:

Еще никто не оставлял запись к записи скачать торрент Здесь и сейчас Here and Now . Будь первым!

!Обратная связь