Chapter 324 | Oh My Girl Miracle Expedition | Lambda Function Python

Скачать через торрент Крепость Бадабер Серии: 1 из 4 Фильм бесплатно в хорошем качестве torrent

Скачивайте на UnionPeer.org фильмы через торрент без регистрации. Новинки кино в хорошем качестве через торрент. На UnionPeer.org можно скачать через торрент фильмы 2014 и 2015 годов. Самые новые фильмы.

Скачать торрент Крепость Бадабер Серии: 1 из 4 бесплатно через .torrent фильм мультфильм сериал

Если у вас наблюдаются проблемы со скриншотами, переходом по ссылками, скачиванием торрентов - проблемы в блокировщике рекламы AdBlock. #хорошегоДня!


Статистика раздачи
Размер:  3.71 GB   |    Зарегистрирован:  5 дней   |    .torrent скачан:  89 раз   |   
Раздают:  5  
   
Загрузка...
 
Автор Сообщение

Galfimbul

avatar Galfimbul


Крепость Бадабер

Год выпуска: 2017
Производство: «Киностудия КИТ» и «Продюсерский центр Иван»
Жанр: драма, военный
Продолжительность: ~00:48:00 серия
Субтитры: нет

Режиссёр: Кирилл Белевич

В ролях: Сергей Марин, Светлана Иванова, Ирина Розанова, Сергей Колесников , Станислав Курач, Александр Фисенко, Виталий Кищенко, Илья Маланин, Рамиль Сабитов, Микаэл Джанибекян, Данил Можаев, Александр Алёшкин, Константин Балакирев, Дмитрий Соколов , Артём Мельничук, Всеволод Шергин, Никита Кологривый

Описание: Фильм о событиях, произошедших во время Афганской войны. В центре сюжета - восстание в лагере Бадабер. Весна 1985-ого. По заданию ГРУ разведчик Юрий Никитин проникает в пакистанскую крепость Бадабер. Никитин должен собрать доказательства существования здесь центра подготовки моджахедов под руководством ЦРУ. Выполнив опасное задание, Никитин видит на территории крепости группу русских военнопленных, среди которых узнает своего друга Михаила, сына своего командира генерала Колесова, несколько лет считавшегося пропавшим без вести. Никитин решает остаться и спасти обреченных на смерть ребят....

Реклама: Нет.



Sample

Качество: HDTV 1080i - olegka7373 (GeneralFilm)
Формат: TS
Видео кодек: AVC
Аудио кодек: MP2
Видео: MPEG4 AVC Video, H264, 16:9, 1920x1080, 25 fps, ~10.2 Mbps, 0.196 bit/pixel
Аудио: MP2, 2 ch, 192 kbps, 16 bits, 48.0 KHz
Раздача ведётся путём добавления новых серий, при каждом добавлении создаётся новый торрент. Чтобы начать докачку новой серии, пользователям необходимо сделать следующее:

- Остановить скачивание.
- Удалить старый торрент у себя из клиента (старые серии удалять не надо).
- Скачать новый торрент и запустить его у себя в клиенте вместо старого, при этом указать клиенту путь в старую папку куда и должно происходить скачивание новых серий.

Ваш клиент при этом должен произвести хеширование (проверку) старой папки (если не производит сам - помогите ему сделать это), и будет докачивать только те серии которых у вас ещё нет. Старые серии при этом не удаляются, а продолжают раздаваться!
Если вы уже удалили старые серии, то предотвратить повторную закачку старых серий можно, отжав галочку в соответствующих местах при запуске нового торрента. По возможности, желательно не удалять старые серии как можно дольше, чтобы релизер не столько продолжал раздавать старые серии, а смог сконцентрироваться на новых.
General
ID : 1 (0x1)
Complete name : D:\Krepost Badaber.HDTV(1080i).GeneralFilm\01.Krepost Badaber.HDTV(1080i).GeneralFilm.ts
Format : MPEG-TS
File size : 3.71 GiB
Duration : 48mn 46s
Overall bit rate mode : Variable
Overall bit rate : 10.9 Mbps

Video
ID : 4121 (0x1019)
Menu ID : 80 (0x50)
Format : AVC
Format/Info : Advanced Video Codec
Format profile : [email protected]
Format settings, CABAC : Yes
Format settings, ReFrames : 3 frames
Codec ID : 27
Duration : 48mn 46s
Bit rate : 10.2 Mbps
Width : 1 920 pixels
Height : 1 080 pixels
Display aspect ratio : 16:9
Frame rate : 25.000 fps
Standard : Component
Color space : YUV
Chroma subsampling : 4:2:0
Bit depth : 8 bits
Scan type : Interlaced
Scan order : Top Field First
Bits/(Pixel*Frame) : 0.196
Stream size : 3.46 GiB (93%)
Color primaries : BT.709
Transfer characteristics : BT.709
Matrix coefficients : BT.709

Audio
ID : 4124 (0x101C)
Menu ID : 80 (0x50)
Format : MPEG Audio
Format version : Version 1
Format profile : Layer 2
Codec ID : 3
Duration : 48mn 46s
Bit rate mode : Constant
Bit rate : 192 Kbps
Channel count : 2 channels
Sampling rate : 48.0 KHz
Compression mode : Lossy
Delay relative to video : -120ms
Stream size : 67.0 MiB (2%)
Language : Russian


Трекер:  [ 12-Фев-2018 19:18 ]

  

Скачать .torrent

Размер .torrent файла 19 KB


Размер: 3.71 GB
Хэш (hash) релиза: 33ec2474048ba42dbe826cbea4d64066db085c40
Подписка на обновления:

Торренты, похожие на Крепость Бадабер Серии: 1 из 4 скачать торрент

Форум Название Автор Размер S L Добавлен
Российские сериалы ·· Крепость Бадабер / Серии: 1 из 4 (Кирилл Белевич) [2017, драма, военный, HDTVRip 720p] Galfimbul 13510531591.26 GB 0 0 1518456174

20:22

12-Фев-18

Российские сериалы ·· Крепость Бадабер / Серии: 1 из 4 (Кирилл Белевич) [2017, Военный, драма, SATRip] Galfimbul 677447680646 MB 0 0 1518447078

17:51

12-Фев-18

Российские сериалы ·· Крепость Бадабер (Бадабер) / Серии: 1-4 из 4 (Кирилл Белевич) [2017,драма, военный, SATRip-AVC] aleksan55 25423328282.37 GB 3 0 1518447200

17:53

12-Фев-18

Еще никто не оставлял запись к записи скачать торрент Крепость Бадабер Серии: 1 из 4 . Будь первым!

!Обратная связь