Download | The Phantom Zone | Download

Скачать через торрент Команда Б Серии: 1 из 20 Фильм бесплатно в хорошем качестве torrent

Скачивайте на UnionPeer.org фильмы через торрент без регистрации. Новинки кино в хорошем качестве через торрент. На UnionPeer.org можно скачать через торрент фильмы 2014 и 2015 годов. Самые новые фильмы.

Скачать торрент Команда Б Серии: 1 из 20 бесплатно через .torrent фильм мультфильм сериал

Статистика раздачи
Размер:  1.02 GB   |    Зарегистрирован:  6 месяцев   |    .torrent скачан:  55 раз   |   
Раздают:  1  
   
загрузка...
 
Автор Сообщение

Galfimbul

avatar Galfimbul


Команда Б

Год выпуска: 2017
Производство: Студия Стар-Т
Жанр: комедия
Продолжительность: ~00:27:00 серия
Субтитры: нет

Режиссёр: Арман Геворгян

В ролях: Владимир Яглыч, Михаил Ефремов, Настасья Самбурская, Оскар Кучера, Карина Андоленко, Ян Цапник, Михаил Тарабукин, Валерия Федорович, Сергей Баталов, Борис Дергачев, Евгения Ахременко, Даниил Муравьев-Изотов, Павел Крайнов

Описание: Генерал Брусницын, спасая племянника Мишу от тюрьмы, поручает ему возглавить команду обычных ребят, отобранных для полёта на Луну — команду «Б». Он уверен, что эксперимент провалится и «лузеры» никуда не полетят. Но пилот-экстремал Миша, научный сотрудник Света, солдат в юбке Саша, красавчик-качок Егор и врач-неудачник Стас готовы обойти профессионалов из команды «А» и покорить космос.

Реклама: Нет.

Кинопоиск]

Sample

Качество: WEBRip 1080p - Getty
Формат: MKV
Видео кодек: H.264
Аудио кодек: AC3
Видео: MPEG4 AVC Video, H264, 16:9, 1920x800, 25 fps, ~5000 kbps, 0.097 bit/pixel
Аудио: AC3 Dolby Digital, 48.0 kHz, 2/0 (L,R) ch, 192 kbps
Раздача ведётся путём добавления новых серий, при каждом добавлении создаётся новый торрент. Чтобы начать докачку новой серии, пользователям необходимо сделать следующее:

- Остановить скачивание.
- Удалить старый торрент у себя из клиента (старые серии удалять не надо).
- Скачать новый торрент и запустить его у себя в клиенте вместо старого, при этом указать клиенту путь в старую папку куда и должно происходить скачивание новых серий.

Ваш клиент при этом должен произвести хеширование (проверку) старой папки (если не производит сам - помогите ему сделать это), и будет докачивать только те серии которых у вас ещё нет. Старые серии при этом не удаляются, а продолжают раздаваться!
Если вы уже удалили старые серии, то предотвратить повторную закачку старых серий можно, отжав галочку в соответствующих местах при запуске нового торрента. По возможности, желательно не удалять старые серии как можно дольше, чтобы релизер не столько продолжал раздавать старые серии, а смог сконцентрироваться на новых.
General
Unique ID : 224855256113224607170216370650581417020 (0xA9298C0E19510D23884920E32581BC3C)
Complete name : D:\Komanda.B.2017.WEB-DL.(1080p).Getty\Komanda.B.e01.2017.WEB-DL.(1080p).Getty.mkv
Format : Matroska
Format version : Version 4 / Version 2
File size : 1.02 GiB
Duration : 27mn 28s
Overall bit rate : 5 315 Kbps
Movie name : Komanda.B.e01.2017.WEB-DL.(1080p).Getty
Encoded date : UTC 2018-02-12 14:16:26
Writing application : mkvmerge v7.8.0 ('River Man') 32bit built on Mar 27 2015 16:18:02
Writing library : libebml v1.3.1 + libmatroska v1.4.2
DURATION : 00:27:28.000000000
NUMBER_OF_FRAMES : 51500
NUMBER_OF_BYTES : 39552000
_STATISTICS_WRITING_APP : mkvmerge v7.8.0 ('River Man') 32bit built on Mar 27 2015 16:18:02
_STATISTICS_WRITING_DATE_UTC : 2018-02-12 14:16:26
_STATISTICS_TAGS : BPS DURATION NUMBER_OF_FRAMES NUMBER_OF_BYTES

Video
ID : 1
Format : AVC
Format/Info : Advanced Video Codec
Format profile : [email protected]
Format settings, CABAC : Yes
Format settings, ReFrames : 4 frames
Codec ID : V_MPEG4/ISO/AVC
Duration : 27mn 28s
Bit rate : 5 017 Kbps
Width : 1 920 pixels
Height : 1 080 pixels
Display aspect ratio : 16:9
Frame rate mode : Constant
Frame rate : 25.000 fps
Color space : YUV
Chroma subsampling : 4:2:0
Bit depth : 8 bits
Scan type : Progressive
Bits/(Pixel*Frame) : 0.097
Stream size : 986 MiB (94%)
Default : Yes
Forced : No

Audio
ID : 2
Format : AC-3
Format/Info : Audio Coding 3
Mode extension : CM (complete main)
Format settings, Endianness : Big
Codec ID : A_AC3
Duration : 27mn 28s
Bit rate mode : Constant
Bit rate : 192 Kbps
Channel count : 2 channels
Channel positions : Front: L R
Sampling rate : 48.0 KHz
Bit depth : 16 bits
Compression mode : Lossy
Stream size : 37.7 MiB (4%)
Default : Yes
Forced : No


Трекер:  [ 12-Фев-2018 18:18 ]

  

Скачать .torrent

Размер .torrent файла 10 KB


Размер: 1.02 GB
Хэш (hash) релиза: de46c65c7f0985b0a46491c283b449dc55e61fc8
Подписка на обновления:

Торренты, похожие на Команда Б Серии: 1 из 20 скачать торрент

Форум Название Автор Размер S L Добавлен
Российские сериалы ·· Команда Б / Серии: 1-5 из 20 (Арман Геворгян) [2017, комедия, WEBRip-AVC] Galfimbul 16576518491.54 GB 0 0 1518531666

17:21

13-Фев-18

Еще никто не оставлял запись к записи скачать торрент Команда Б Серии: 1 из 20 . Будь первым!

!Обратная связь