Brent Hinkley
Lisa Marie

Скачать через торрент Лострейдж: Пробуждение WIXOSS Lostorage Incited Wixoss бесплатно Аниме Все серии на русском torrent

Если у вас наблюдаются проблемы со скриншотами, переходом по ссылками, скачиванием торрентов - проблемы в блокировщике рекламы AdBlock. #хорошегоДня!


Статистика раздачи
Размер:  5.86 GB   |    Зарегистрирован:  12 дней   |    .torrent скачан:  20 раз   |   
Раздают:  1  
   
Загрузка...
 
Автор Сообщение

Galfimbul

avatar Galfimbul



Лострейдж: Пробуждение WIXOSS / Lostorage Incited Wixoss / ロストレージ インサイテッド ウィクロス
Год выпуска: 2016 г.
Страна: Япония
Жанр: Приключения, Психологическое
Тип: TV
Продолжительность: 12 эп. по 24 мин.
Режиссер: Сакураби Кацуси
Студия: J.C. Staff
Перевод:

Русские субтитры от Orenji_Reiji

Русские субтитры от Akira & Nesushiy
Описание:
Игра — это не просто способ скоротать время и отвлечься от повседневных забот. Игра — это не только приятное занятие для дружеской компании. Порой игра способна размыть грани реальности и раз и навсегда изменить жизнь человека. «Викросс» - именно такая игра. С виду она ничем не отличается от прочих — есть набор карт с бойцами, есть атаки и способы их отражения, есть правила турнира и приз победителю, которым может стать лишь один.

Вот только «Викросс» - далеко не для всех набор карт и правил. Для избранных игроков поединки происходят в отдельной турнирной реальности, а призом является необыкновенная возможность исполнить свое самое заветное желание. Только вот игроки, бросающиеся в погоню за вознаграждением, забывают, что за все приходится платить, и что мечты имеют обыкновение сбываться совсем не так, как хотелось бы. «Викросс» - это не просто волшебство и новые возможности, это коварный мир, где можно многое приобрести, но и многое же потерять. И исход пути каждой избранной участницы зависит только от нее самой.
Информационные ссылки: World Art || AniDB || MAL
Качество: HDTVRip | Рип: [Leopard-Raws]
Тип релиза: Без хардсаба
Формат видео: MP4
Наличие линковки: Нет
Видео: AVC, 1280x720, 2458 kbps, 23.976 fps [8 bit]
Аудио:
1. Russian AC3, 48.0 KHz, 192 kbps, 2 ch (внешние) - [AniDub];
2. Russian AC3, 48.0 KHz, 192 kbps, 2 ch (внешние) - [SHIZA];
3. Russian AC3, 48.0 KHz, 192 kbps, 2 ch (внешние) - [Anilibria];
4. Japanese AAC, 48.0 KHz, 192 kbps, 2 ch;
Субтитры:

Russian: ASS, внешние;

Двухголосая от (жен/муж) Гамлетка Цезаревна & 9й Неизвестный (AniDub) -sample

Трехголосая от Snowly & Viki & RJ Pandora (SHIZA) -sample

Трехголосая от Ados & Amikiri & Lali (01-07) / SlivciS (08-12) (Anilibria) -sample

General Format : MPEG-4 Format profile : Base Media Codec ID : isom File size : 455 MiB Duration : 23mn 59s Overall bit rate mode : Variable Overall bit rate : 2 653 Kbps Encoded date : UTC 2016-10-07 21:59:04 Tagged date : UTC 2016-10-07 21:59:04 Video #1 ID : 1 Format : AVC Format/Info : Advanced Video Codec Format profile : [email protected] Format settings, CABAC : Yes Format settings, ReFrames : 4 frames Codec ID : avc1 Codec ID/Info : Advanced Video Coding Duration : 23mn 59s Bit rate : 2 458 Kbps Maximum bit rate : 36.4 Mbps Width : 1 280 pixels Height : 720 pixels Display aspect ratio : 16:9 Frame rate mode : Constant Frame rate : 23.976 fps Color space : YUV Chroma subsampling : 4:2:0 Bit depth : 8 bits Scan type : Progressive Bits/(Pixel*Frame) : 0.111 Stream size : 422 MiB (93%) Title : 264:[email protected] Writing library : x264 core 129 r2245+729M 1a52e03 Encoding settings : cabac=1 / ref=4 / deblock=1:1:-1 / analyse=0x3:0x113 / me=umh / subme=9 / psy=1 / fade_compensate=0.00 / psy_rd=1.00:0.00 / mixed_ref=1 / me_range=24 / chroma_me=1 / trellis=2 / 8x8dct=1 / cqm=0 / deadzone=21,11 / fast_pskip=1 / chroma_qp_offset=-2 / threads=8 / lookahead_threads=1 / sliced_threads=0 / nr=0 / decimate=1 / interlaced=0 / bluray_compat=0 / constrained_intra=0 / fgo=0 / bframes=9 / b_pyramid=2 / b_adapt=2 / b_bias=0 / direct=1 / weightb=1 / open_gop=0 / weightp=2 / keyint=240 / keyint_min=24 / scenecut=40 / intra_refresh=0 / rc=crf / mbtree=0 / crf=17.5 / qcomp=0.72 / qpmin=0 / qpmax=69 / qpstep=4 / ip_ratio=1.40 / pb_ratio=1.30 / aq=1:0.85 Encoded date : UTC 2016-10-07 21:59:04 Tagged date : UTC 2016-10-07 21:59:10 Color primaries : BT.709 Transfer characteristics : BT.709 Matrix coefficients : BT.709 Audio #2 ID : 2 Format : AAC Format/Info : Advanced Audio Codec Format profile : LC Codec ID : 40 Duration : 23mn 59s Bit rate mode : Variable Bit rate : 192 Kbps Maximum bit rate : 237 Kbps Channel(s) : 2 channels Channel positions : Front: L R Sampling rate : 48.0 KHz Compression mode : Lossy Stream size : 32.7 MiB (7%) Language : Japanese Encoded date : UTC 2016-10-07 16:25:09 Tagged date : UTC 2016-10-07 21:59:10

01. Воспоминания / Впереди и Позади / Memories / Front and Back
02. Девушка / Идеалы и Реальность / Girl / Ideal and Reality
03. Селектор / Сласть и Яд / Selector / Honey and Poison
04. Встреча / Свет и Тьма / Reunion / Bright Light and Chaos
05. Друг / Узы и Цепи / Friend / Bonds and Chains
06. Битва / Прошлое и Настоящее / Battle / Past and Present
07. Эволюция / Белое и Чёрное / Evolution / Pure White and Pitch Black
08. Тьма / Желание и Потеря / Darkness / Fervent Desire and Loss
09. Истина / Конец и Начало / Truth / Ending and Beginning
10. Поглощая Добычу / Трагедия и Комедия / Devouring Prey / Tragedy and Comedy
11. Двое / Сузуко и Чинацу / The Two / Suzuko and Chinatsu
12. Рассвет / Dawn


Добавлена Вторая серия [17.10.2016]

Добавлена Третья серия [24.10.2016]

Добавлены Четвертая и Пятая серии [09.11.2016]

Добавлены Шестая и Седьмая серии [02.12.2016]

Добавлены Восьмая, Девятая и Десятая серии [20.12.2016]

Добавлена Одиннадцатая серия [24.12.2016]



Раздача обновлена. Добавлена Двенадцатая серия [25.12.2016]



Трекер:  [ 12-Фев-2018 18:01 ]

  

Скачать .torrent

Размер .torrent файла 23 KB


Размер: 5.86 GB
Хэш (hash) релиза: bd6fb7676b272c5070853095bd69073632b3b926
Подписка на обновления:

Торренты, похожие на Лострейдж: Пробуждение WIXOSS Lostorage Incited Wixoss скачать торрент

Форум Название Автор Размер S L Добавлен
Аниме | Rips ·· Лострейдж: Пробуждение WIXOSS / Lostorage Incited Wixoss [TV] [12 из 12] [Без хардсаба] [RUS(ext), JAP, SUB] [2016, Приключения, Психологическое, HDTVRip] [720p] Galfimbul 59483383825.54 GB 0 0 1482632395

05:19

25-Дек-16

Аниме | Rips ·· Лострейдж: Пробуждение WIXOSS / Lostorage Incited Wixoss [TV] [01-11 из 12] [Без хардсаба] [RUS(ext), JAP, SUB] [2016, Приключения, Психологическое, HDTVRip] [720p] Galfimbul 53582695784.99 GB 0 0 1482546789

05:33

24-Дек-16

Аниме | Rips ·· Лострейдж: Пробуждение WIXOSS / Lostorage Incited Wixoss [TV] [01-10 из 12] [Без хардсаба] [RUS(ext), JAP, SUB] [2016, Приключения, Психологическое, HDTVRip] [720p] Galfimbul 48724873444.54 GB 0 0 1482204209

06:23

20-Дек-16

Аниме | Rips ·· Лострейдж: Пробуждение WIXOSS / Lostorage Incited Wixoss [TV] [01-07 из 12] [Без хардсаба] [RUS(ext), JAP, SUB] [2016, Приключения, Психологическое, HDTVRip] [720p] Galfimbul 33954996513.16 GB 0 0 1480625764

23:56

1-Дек-16

Аниме | Rips ·· Лострейдж: Пробуждение WIXOSS / Lostorage Incited Wixoss [TV] [01-05 из 12] [Без хардсаба] [RUS(ext), JAP, SUB] [2016, Приключения, Психологическое, HDTVRip] [720p] Galfimbul 25702586782.39 GB 0 0 1478663712

06:55

9-Ноя-16

Аниме | Rips ·· Лострейдж: Пробуждение WIXOSS / Lostorage Incited Wixoss [TV] [01-03 из 12] [Без хардсаба] [RUS(ext), JAP, SUB] [2016, Приключения, Психологическое, HDTVRip] [720p] Galfimbul 16305316571.52 GB 0 0 1477344000

00:20

25-Окт-16

Аниме | Rips ·· Лострейдж: Пробуждение WIXOSS / Lostorage Incited Wixoss [TV] [01-02 из 12] [Без хардсаба] [RUS(ext), JAP, SUB] [2016, Приключения, Психологическое, HDTVRip] [720p] Galfimbul 11099770621.03 GB 0 0 1476682654

08:37

17-Окт-16

Аниме | Rips ·· Лострейдж: Пробуждение WIXOSS / Lostorage Incited Wixoss [TV] [01 из 12] [Без хардсаба] [RUS(ext), JAP, SUB] [2016 г., Приключения, Психологическое, HDTVRip] [720p] Galfimbul 616132464588 MB 0 0 1476406485

03:54

14-Окт-16

Аниме | Rips ·· Лострейдж: Пробуждение WIXOSS / Lostorage Incited Wixoss [TV] [01 из 12] [Без хардсаба] [RUS(ext), JAP, SUB] [2016 г., Приключения, Психологическое, HDTVRip] [720p] Galfimbul 581479589555 MB 0 0 1476239488

05:31

12-Окт-16

Аниме | Rips ·· Лострейдж: Пробуждение WIXOSS / Lostorage Incited Wixoss [TV] [01 из 12] [Без хардсаба] [RUS(ext), JAP, SUB] [2016 г., Приключения, Психологическое, HDTVRip] [720p] Galfimbul 546826709521 MB 0 0 1476065998

05:19

10-Окт-16

Аниме | Rips ·· Лострейдж: Пробуждение WIXOSS / Lostorage Incited Wixoss [TV] [01 из 12] [Без хардсаба] [RUS(ext), JAP, SUB] [2016 г., Приключения, Психологическое, HDTVRip] [720p] Galfimbul 512173842488 MB 0 0 1476027236

18:33

9-Окт-16

Еще никто не оставлял запись к записи скачать торрент Лострейдж: Пробуждение WIXOSS Lostorage Incited Wixoss . Будь первым!

!Обратная связь