Hitman Configs | Arctic Monkeys - American Sports | Australias Top 40 Music Video Chart 17-10-2015.

Скачать через торрент Крепость Бадабер Серии: 1 из 4 Фильм бесплатно в хорошем качестве torrent

Скачивайте на UnionPeer.org фильмы через торрент без регистрации. Новинки кино в хорошем качестве через торрент. На UnionPeer.org можно скачать через торрент фильмы 2014 и 2015 годов. Самые новые фильмы.

Скачать торрент Крепость Бадабер Серии: 1 из 4 бесплатно через .torrent фильм мультфильм сериал

Статистика раздачи
Размер:  646 MB   |    Зарегистрирован:  3 месяца 13 дней   |    .torrent скачан:  55 раз   |   
Раздают:  1  
   
загрузка...
 
Автор Сообщение

Galfimbul

avatar Galfimbul


Крепость Бадабер
«История неизвестного подвига»
Год выпуска: 2017
Производство: «ГПМ КИТ» совместно с «Киностудия КИТ» и «Продюсерский центр Иван»
Жанр: Военный, драма
Продолжительность: 00:49:00
Субтитры: нет
Режиссёр: Кирилл Белевич
В ролях: Сергей Марин, Светлана Иванова, Ирина Розанова, Сергей Колесников (II), Микаэл Джанибекян, Рамиль Сабитов, Василий Мищенко, Илья Маланин, Александр Фисенко, Станислав Курач, Марцин Стец, Данил Можаев, Александр Алёшкин, Константин Балакирев, Дмитрий Соколов (VI), Артём Мельничук, Всеволод Шергин, Никита Кологривый
Описание: Фильм о событиях, произошедших во время Афганской войны. В центре сюжета - восстание в лагере Бадабер.
Весна 1985-ого. По заданию ГРУ разведчик Юрий Никитин проникает в пакистанскую крепость Бадабер. Никитин должен собрать доказательства существования здесь центра подготовки моджахедов под руководством ЦРУ. Выполнив опасное задание, Никитин видит на территории крепости группу русских военнопленных, среди которых узнает своего друга Михаила, сына своего командира генерала Колесова, несколько лет считавшегося пропавшим без вести. Никитин решает остаться и спасти обреченных на смерть ребят....



Доп. информация: Знаете ли вы, что...
<div class="q-wrap">
<div class="q-head"><b>Цитата:</b></div>
<div class="q">Фильм снят на основе реальных событий Афганской войны.
Массовые сцены боев снимали в песчаном карьере в Краснодарском крае. Туда привезли советскую военную технику 80-х годов.
События в Бадабере уже были описаны в кино. В 1993 году Тимур Бекмамбетов и Геннадий Каюмов сняли драму «Пешаварский вальс».
Почти все участники восстания в Бадабере погибли при бомбардировке крепости. Известен лишь один участник событий, сумевший выжить и вернуться в СССР.</div>
</div>
Качество: SATRip / 25Kuzmich
Формат: AVI
Видео кодек: XviD
Аудио кодек: MP3
Видео: 720x400 (16:9), 25.000 fps, XviD, 1650 Kbps, 0.23 Bits/Pixel
Аудио: 48 kHz, MP3, 2 ch, 192 Kbps

Реклама: Нет
General
Complete name : Downloads\Krepost.Badaber.XviD.SATRip.25Kuzmich\Krepost.Badaber.(01.seriya).XviD.SATRip.25Kuzmich.avi
Format : AVI
Format/Info : Audio Video Interleave
File size : 646 MiB
Duration : 48mn 47s
Overall bit rate : 1 852 Kbps
Writing application : VirtualDubMod 1.5.10.3 | www.virtualdub-fr.org || (build 2550/release)
Writing library : VirtualDubMod build 2550/release
Video #0
ID : 0
Format : MPEG-4 Visual
Format profile : Advanced [email protected]
Format settings, BVOP : 2
Format settings, QPel : No
Format settings, GMC : No warppoints
Format settings, Matrix : Default (MPEG)
Codec ID : XVID
Codec ID/Hint : XviD
Duration : 48mn 47s
Bit rate : 1 650 Kbps
Width : 720 pixels
Height : 400 pixels
Display aspect ratio : 16:9
Frame rate : 25.000 fps
Color space : YUV
Chroma subsampling : 4:2:0
Bit depth : 8 bits
Scan type : Progressive
Compression mode : Lossy
Bits/(Pixel*Frame) : 0.229
Stream size : 576 MiB (89%)
Writing library : XviD 1.2.1 (UTC 2008-12-04)
Audio #1
ID : 1
Format : MPEG Audio
Format version : Version 1
Format profile : Layer 3
Mode : Joint stereo
Mode extension : MS Stereo
Codec ID : 55
Codec ID/Hint : MP3
Duration : 48mn 47s
Bit rate mode : Constant
Bit rate : 192 Kbps
Channel(s) : 2 channels
Sampling rate : 48.0 KHz
Compression mode : Lossy
Stream size : 67.0 MiB (10%)
Alignment : Aligned on interleaves
Interleave, duration : 40 ms (1.00 video frame)
Interleave, preload duration : 504 ms
Writing library : LAME3.99r
Encoding settings : -m j -V 4 -q 2 -lowpass 18.6 -b 192
(1) остановить скачивание,
(2) удалить старый торрент у себя из клиента (старые серии удалять не надо),
(3) скачать новый торрент и запустить его у себя в клиенте вместо старого, при этом указать клиенту путь в старую папку куда и должно происходить скачивание новых серий.
Ваш клиент при этом должен произвести хеширование (проверку) старой папки (если не производит сам - помогите ему сделать это), и будет докачивать только те серии которых у вас ещё нет. Старые серии при этом не удаляются, а продолжают раздаваться!
Eсли вы уже удалили старые серии, то предотвратить повторную закачку старых серий можно, отжав галочку в соответсвующих местах при запуске нового торрента. По возможности, желательно не удалять старые серии как можно дольше чтобы релизёр не столько продолжал раздавать старые серии, а смог сконцентрироваться на новых.
Предыдущие и альтернативные раздачи

Трекер:  [ 12-Фев-2018 17:48 ]

  

Скачать .torrent

Размер .torrent файла 404 KB


Размер: 646 MB
Хэш (hash) релиза: 1d2a4dccbacfa291eb41369996d69c274c91eab2
Подписка на обновления:

Торренты, похожие на Крепость Бадабер Серии: 1 из 4 скачать торрент

Форум Название Автор Размер S L Добавлен
Российские сериалы ·· Крепость Бадабер / Серии: 1 из 4 (Кирилл Белевич) [2017, драма, военный, HDTVRip 720p] Galfimbul 13510531591.26 GB 0 0 1518456174

20:22

12-Фев-18

Российские сериалы ·· Крепость Бадабер / Серии: 1 из 4 (Кирилл Белевич) [2017, драма, военный, HDTV 1080i] Galfimbul 39854010963.71 GB 0 0 1518452516

19:21

12-Фев-18

Российские сериалы ·· Крепость Бадабер (Бадабер) / Серии: 1-4 из 4 (Кирилл Белевич) [2017,драма, военный, SATRip-AVC] aleksan55 25423328282.37 GB 0 0 1518447200

17:53

12-Фев-18

Еще никто не оставлял запись к записи скачать торрент Крепость Бадабер Серии: 1 из 4 . Будь первым!

!Обратная связь