April 2012 (89) | The Return Of Luk Siu Fung - 陸小鳳之鳳舞九天 - Episode 40 [END] (Completed) | Les nouveautés d’OS X Yosemite

Скачать через торрент Родина Homeland Фильм бесплатно в хорошем качестве torrent

Скачивайте на UnionPeer.org фильмы через торрент без регистрации. Новинки кино в хорошем качестве через торрент. На UnionPeer.org можно скачать через торрент фильмы 2014 и 2015 годов. Самые новые фильмы.

Скачать торрент Родина Homeland бесплатно через .torrent фильм мультфильм сериал

Статистика раздачи
Размер:  750 MB   |    Зарегистрирован:  3 месяца 13 дней   |    .torrent скачан:  31 раз   |   
Раздают:  1  
   
загрузка...
 
Автор Сообщение

Galfimbul

avatar Galfimbul


Родина / Homeland
Год выпуска: 2018
Страна: США
Жанр: Триллер, драма, детектив
Продолжительность: 00:59:55
Перевод: Профессиональный (многоголосый закадровый) Amedia
Режиссёр: Лесли Линка Глаттер, Майкл Куэста
В ролях: Клэр Дэйнс, Элизабет Марвел, Мори Стерлинг, Лайнас Роуч, Джейк Уэбер, Морган Спектор, Мэнди Патинкин, Ф. Мюррей Абрахам
Описание: В начале сезона, Кэрри оставила работу в Белом доме и переехала обратно в Вашингтон, и теперь она живёт вместе со своей сестрой Мэгги, чтобы бороться с администрацией Кин и обеспечить освобождение 200 членов разведывательного сообщества, которые были арестованы по приказу президента Кин в прошлом сезоне.
Сэмпл: http://multi-up.com/1186910
Качество: WEB-DLRip
Формат: AVI
Видео: 720x400 (16:9), 23.976 fps, XviD, 1549 Kbps, 0.22 bits/pixe
Аудио: 48 kHz, AC3 Dolby Digital, 2 ch, 192 Kbps
Субтитры: Отсутствуют
Реклама: Отсутствует
Предыдущие и альтернативные раздачи
01. Враг государства / Enemy of the State
General
Complete name : Downloads\Homeland_(s07)_Amedia\Homeland.s07e01.Amedia.avi
Format : AVI
Format/Info : Audio Video Interleave
File size : 750 MiB
Duration : 59mn 55s
Overall bit rate : 1 750 Kbps
Writing application : VirtualDubMod 1.5.10.2 (build 2540/release)
Writing library : VirtualDubMod build 2540/release
Video #0
ID : 0
Format : MPEG-4 Visual
Format profile : Advanced [email protected]
Format settings, BVOP : 2
Format settings, QPel : No
Format settings, GMC : No warppoints
Format settings, Matrix : Default (MPEG)
Codec ID : XVID
Codec ID/Hint : XviD
Duration : 59mn 55s
Bit rate : 1 549 Kbps
Width : 720 pixels
Height : 400 pixels
Display aspect ratio : 16:9
Frame rate : 23.976 fps
Color space : YUV
Chroma subsampling : 4:2:0
Bit depth : 8 bits
Scan type : Progressive
Compression mode : Lossy
Bits/(Pixel*Frame) : 0.224
Stream size : 664 MiB (88%)
Writing library : XviD 1.2.1 (UTC 2008-12-04)
Audio #1
ID : 1
Format : AC-3
Format/Info : Audio Coding 3
Mode extension : CM (complete main)
Format settings, Endianness : Big
Codec ID : 2000
Duration : 59mn 55s
Bit rate mode : Constant
Bit rate : 192 Kbps
Channel(s) : 2 channels
Channel positions : Front: L R
Sampling rate : 48.0 KHz
Bit depth : 16 bits
Compression mode : Lossy
Stream size : 82.3 MiB (11%)
Alignment : Split accross interleaves
Interleave, duration : 42 ms (1.00 video frame)
Interleave, preload duration : 500 ms
(1) остановить скачивание,
(2) удалить старый торрент у себя из клиента (старые серии удалять не надо),
(3) скачать новый торрент и запустить его у себя в клиенте вместо старого, при этом указать клиенту путь в старую папку куда и должно происходить скачивание новых серий.
Ваш клиент при этом должен произвести хеширование (проверку) старой папки (если не производит сам - помогите ему сделать это), и будет докачивать только те серии которых у вас ещё нет. Старые серии при этом не удаляются, а продолжают раздаваться!
Eсли вы уже удалили старые серии, то предотвратить повторную закачку старых серий можно, отжав галочку в соответсвующих местах при запуске нового торрента. По возможности, желательно не удалять старые серии как можно дольше чтобы релизёр не столько продолжал раздавать старые серии, а смог сконцентрироваться на новых.


Трекер:  [ 12-Фев-2018 17:18 ]

  

Скачать .torrent

Размер .torrent файла 15 KB


Размер: 750 MB
Хэш (hash) релиза: c9dedc64ee1fd6586719b5b9e798d43a29a04367
Подписка на обновления:

Торренты, похожие на Родина Homeland скачать торрент

Форум Название Автор Размер S L Добавлен
Зарубежные сериалы ·· Родина / Homeland / Сезон: 7 / Серии: 1 из 12 (Лесли Линка Глаттер, Майкл Куэста, Дэниэл Эттиэс) [2018, США, триллер, драма, криминал, детектив, WEB-DL 1080p] MVO (SDI Media) + Original + Sub (eng) Galfimbul 54022863075.03 GB 0 0 1518454503

19:55

12-Фев-18

Зарубежные сериалы ·· Родина / Чужой среди своих / Homeland / Сезон: 7 / Серии: 1 из 12 (Лесли Линка Глаттер, Майкл Куэста, Дэниэл Эттиэс) [2018, США, Триллер, драма, криминал, детектив, WEBRip 720p] DVO (Gears Media) + Original Galfimbul 18423775761.72 GB 0 0 1518974691

20:24

18-Фев-18

Зарубежные сериалы ·· Родина / Чужой среди своих / Homeland / Сезон: 7 / Серия: 1 из 12 (Лесли Линка Глаттер, Майкл Куэста, Дэниэл Эттиэс) [2018, США, триллер, драма, детектив, WEB-DL 720p] MVO (LostFilm) + Original + Subs (Rus, Eng) Galfimbul 19576492241.82 GB 0 0 1518591262

09:54

14-Фев-18

Зарубежные сериалы ·· Родина / Чужой среди своих / Homeland / Сезон: 7 / Серия: 1 из 12 (Майкл Куэста) [2018, США, Триллер, драма, детектив, WEB-DL 1080p] MVO (LostFilm) + Original + Subs (Rus, Eng) Galfimbul 56037300495.22 GB 0 0 1518589469

09:24

14-Фев-18

Зарубежные сериалы ·· Родина / Чужой среди своих / Homeland / Сезон: 7 / Серии: 1-7 из 12 (Лесли Линка Глаттер, Майкл Куэста, Дэниэл Эттиэс) [2018, США, триллер, драма, криминал, детектив, WEB-DL 720p] MVO (AMS) + Original Eng Galfimbul 1118780531610.42 GB 0 0 1523805513

18:18

15-Апр-18

Зарубежные сериалы ·· Родина / Чужой среди своих / Homeland / Сезон: 7 / Серии: 1-12 из 12 (Лесли Линка Глаттер, Майкл Куэста, Дэниэл Эттиэс) [2018, США, Триллер, драма, криминал, детектив, WEBRip] DVO (Gears Media) + Original Galfimbul 76120171667.09 GB 0 0 1519027838

11:10

19-Фев-18

Зарубежные сериалы ·· Родина / Чужой среди своих / Homeland / Сезон: 7 / Серии: 1-2 из 12 (Лесли Линка Глаттер, Майкл Куэста, Дэниэл Эттиэс) [2018, США, триллер, драма, криминал, детектив, WEB-DLRip] MVO (NewStudio) Galfimbul 21250580481.98 GB 0 0 1519563238

15:53

25-Фев-18

Еще никто не оставлял запись к записи скачать торрент Родина Homeland . Будь первым!

!Обратная связь