Celeste Barber | Weekly Idol Episode 314 | Show whole archive

Скачать через торрент Чума La Peste Фильм бесплатно в хорошем качестве torrent

Скачивайте на UnionPeer.org фильмы через торрент без регистрации. Новинки кино в хорошем качестве через торрент. На UnionPeer.org можно скачать через торрент фильмы 2014 и 2015 годов. Самые новые фильмы.

Скачать торрент Чума La Peste бесплатно через .torrent фильм мультфильм сериал

Статистика раздачи
Размер:  2.05 GB   |    Зарегистрирован:  3 месяца 10 дней   |    .torrent скачан:  79 раз   |   
Раздают:  1  
   
загрузка...
 
Автор Сообщение

Galfimbul

avatar Galfimbul


Чума | La Peste

Год выпуска: 2018
Страна: Испания
Жанр: триллер, криминал, драма, история
Продолжительность: ~00:50:00

Перевод: Любительский (двухголосый закадровый) ViruseProject

Режиссёр: Альберто Родригез
В ролях: Пако Леон, Патрисия Лопес Арнаис, Маноло Соло, Пабло Молинеро и др.

Описание: История о серии убийств, происходящих в Севилье XVI века. Во время вспышки чумы несколько высокопоставленных членов общества оказываются убиты. Матео, осуждённый инквизицией, должен распутать эту серию преступлений, чтобы получить прощение Святого Престола и спасти свою жизнь.

Качество: HDTVRip 1080p
Контейнер: MKV
Видео: 1920 x 1080 (16:9), ~2600 Kbps, 25.000 fps, 8 bits
Аудио 1: 48 kHz, AAC, 2/0 (L,R) ch, 192 kb/s
Аудио 2: 48 kHz, AAC, 2/0 (L,R) ch, 192 kb/s
Субтитры: русские

Реклама: В аудио в начале и конце по 12 секунд.

Внимание! Раздача ведётся путём добавления новых серий; при каждом добавлении создаётся новый торрент. Чтобы начать докачку новой серии, пользователям необходимо сделать следующее:
(1) остановить скачивание,
(2) удалить старый торрент у себя из клиента (старые серии удалять не надо),
(3) скачать новый торрент и запустить его у себя в клиенте вместо старого, при этом указать клиенту путь в старую папку куда и должно происходить скачивание новых серий.

Eсли вы уже удалили старые серии, то предотвратить повторную закачку старых серий можно, отжав галочку в соответствующих местах при запуске нового торрента. По возможности, желательно не удалять старые серии как можно дольше чтобы релизёр не столько продолжал раздавать старые серии, а смог сконцентрироваться на новых.
General
Unique ID : 237415796957219671004969291033029861461 (0xB29C9E8805E636218AF63FDD41A76055)
Complete name : E:\La.peste.S01E01.1080p.HDTVRip.ViruseProject.mkv
Format : Matroska
Format version : Version 4 / Version 2
File size : 1.00 GiB
Duration : 48 min 31 s
Overall bit rate : 2 957 kb/s
Encoded date : UTC 2018-02-12 09:24:37
Writing application : mkvmerge v8.3.0 ('Over the Horizon') 64bit
Writing library : libebml v1.3.1 + libmatroska v1.4.2

Video
ID : 1
Format : AVC
Format/Info : Advanced Video Codec
Format profile : [email protected]
Format settings, CABAC : Yes
Format settings, ReFrames : 4 frames
Codec ID : V_MPEG4/ISO/AVC
Duration : 48 min 30 s
Bit rate : 2 571 kb/s
Width : 1 920 pixels
Height : 1 080 pixels
Display aspect ratio : 16:9
Frame rate mode : Constant
Frame rate : 25.000 FPS
Color space : YUV
Chroma subsampling : 4:2:0
Bit depth : 8 bits
Scan type : MBAFF
Scan type, store method : Interleaved fields
Scan order : Top Field First
Bits/(Pixel*Frame) : 0.050
Stream size : 892 MiB (87%)
Writing library : x264 core 155 r2901M 7d0ff22
Encoding settings : cabac=1 / ref=3 / deblock=1:-3:-3 / analyse=0x3:0x113 / me=hex / subme=7 / psy=1 / psy_rd=1.00:0.20 / mixed_ref=1 / me_range=16 / chroma_me=1 / trellis=1 / 8x8dct=1 / cqm=0 / deadzone=21,11 / fast_pskip=1 / chroma_qp_offset=-3 / threads=9 / lookahead_threads=1 / sliced_threads=0 / nr=0 / decimate=1 / interlaced=tff / bluray_compat=0 / constrained_intra=0 / bframes=3 / b_pyramid=2 / b_adapt=2 / b_bias=0 / direct=3 / weightb=1 / open_gop=0 / weightp=0 / keyint=250 / keyint_min=25 / scenecut=40 / intra_refresh=0 / rc_lookahead=40 / rc=crf / mbtree=1 / crf=21.0 / qcomp=0.60 / qpmin=0 / qpmax=69 / qpstep=4 / ip_ratio=1.40 / aq=1:1.00
Default : Yes
Forced : No
Color range : Limited
Color primaries : BT.709
Transfer characteristics : BT.709
Matrix coefficients : BT.709

Audio #1
ID : 2
Format : AAC
Format/Info : Advanced Audio Codec
Format profile : LC
Codec ID : A_AAC
Duration : 48 min 31 s
Bit rate : 192 kb/s
Channel(s) : 2 channels
Channel positions : Front: L R
Sampling rate : 48.0 kHz
Frame rate : 46.875 FPS (1024 spf)
Compression mode : Lossy
Stream size : 66.6 MiB (6%)
Title : ViruseProject
Language : Russian
Default : Yes
Forced : No

Audio #2
ID : 3
Format : AAC
Format/Info : Advanced Audio Codec
Format profile : LC
Codec ID : A_AAC
Duration : 48 min 30 s
Bit rate : 192 kb/s
Channel(s) : 2 channels
Channel positions : Front: L R
Sampling rate : 48.0 kHz
Frame rate : 46.875 FPS (1024 spf)
Compression mode : Lossy
Stream size : 66.6 MiB (6%)
Language : Spanish
Default : No
Forced : No

Text
ID : 4
Format : UTF-8
Codec ID : S_TEXT/UTF8
Codec ID/Info : UTF-8 Plain Text
Duration : 48 min 6 s
Bit rate : 64 b/s
Count of elements : 465
Stream size : 22.6 KiB (0%)
Title : ViruseProject
Language : Russian
Default : No
Forced : No
[/screens]
[b]Предыдущие и альтернативные раздачи

Трекер:  [ 12-Фев-2018 16:54 ]

  

Скачать .torrent

Размер .torrent файла 11 KB


Размер: 2.05 GB
Хэш (hash) релиза: 86957ad57c2f8a09cb5c95b44bb829c8563f4b5f
Подписка на обновления:

Еще никто не оставлял запись к записи скачать торрент Чума La Peste . Будь первым!

!Обратная связь