Collection | Complete | magazine

[iPad] Accident Man torrent

, , - AdBlock. #!


1.81 GB   |    :  7    |    .torrent :  17    |   
1  
   
...
 

Galfimbul

avatar Galfimbul


/ Accident Man
-

6.140 / 10 / 10
: 2018
:
: , ,
: 01:45:29

: (Blu-ray EUR)
:
C: ,
:
: , Stu Small, Pat Mills
: , ,
: Duane McClunie
:
: , Ryan Kaercher,
:
: , , , , , , , , , Β

: 5 2018

: 05 2018, Sony Pictures Home Entertainment

: , . , .
: BDRemux (NNMClub)
: BDRip
: SD (576p)
: M4V
: H.264, 1024x432, 2.40:1, 2 200 Kbps, 23.976 (24000/1001) fps

1: / (Blu-ray EUR), AAC / 2.0 / 128 Kbps / 48.0 KHz
2: / , AAC / 2.0 / 128 Kbps / 48.0 KHz

1:
2:
Sort Name: Accident Man
XID: Apple:vendor_id:2017-1008357
contentID: 1332164973
Screenwriters: , Stu Small, Pat Mills
Producers: , ,
Director:
Cast: , , , , , , , , , Β
Studio: LINK Entertainment
Rating: 5
Long Description: , . , .
Description: , . , .
Release Date: 2018-02-06T08:00:00Z
Genre: Action & Adventure
Artist: Jesse V. Johnson
Name: Accident Man
General
Complete name : /Users/imac/HandBrake/Accident.Man.(576p).(pk).m4v
Format : MPEG-4
Codec ID : M4V (M4V /M4A /mp42/isom)
File size : 1.81 GiB
Duration : 1h 45mn
Overall bit rate mode : Variable
Overall bit rate : 2 460 Kbps
Movie name : Accident Man
Performer : Jesse V. Johnson
Director :
Actor : / / / / / / / / / Β
Screenplay by : / Stu Small / Pat Mills
Producer : / /
Production studio : LINK Entertainment
Genre : Action & Adventure
ContentType : Short Film
Description : , . , .
Recorded date : UTC 2018-02-06 08:00:00
Encoded date : UTC 2018-02-12 12:23:37
Tagged date : UTC 2018-02-12 12:25:19
Cover : Yes
Rating : None
Title/Sort : Accident Man
LongDescription : , . , .
AppleStoreCatalogID : 1332164973
Vendor : Apple:vendor_id:2017-1008357
ContentRating : mpaa|R|400|

Video #1
ID : 1
Format : AVC
Format/Info : Advanced Video Codec
Format profile : [email protected]
Format settings : CABAC / 9 Ref Frames
Format settings, CABAC : Yes
Format settings, ReFrames : 9 frames
Codec ID : avc1
Codec ID/Info : Advanced Video Coding
Duration : 1h 45mn
Source duration : 1h 45mn
Bit rate : 2 200 Kbps
Width : 1 024 pixels
Height : 432 pixels
Display aspect ratio : 2.40:1
Frame rate mode : Variable
Frame rate : 23.976 (24000/1001) fps
Minimum frame rate : 23.974 fps
Maximum frame rate : 23.981 fps
Color space : YUV
Chroma subsampling : 4:2:0
Bit depth : 8 bits
Scan type : Progressive
Bits/(Pixel*Frame) : 0.207
Stream size : 1.62 GiB (89%)
Source stream size : 1.62 GiB (89%)
Title : Main Program
Writing library : x264 core 148 r2708 86b7198
Encoding settings : cabac=1 / ref=9 / deblock=1:0:0 / analyse=0x3:0x113 / me=umh / subme=9 / psy=1 / psy_rd=1.00:0.00 / mixed_ref=1 / me_range=32 / chroma_me=1 / trellis=1 / 8x8dct=1 / cqm=0 / deadzone=21,11 / fast_pskip=1 / chroma_qp_offset=-2 / threads=13 / lookahead_threads=1 / sliced_threads=0 / nr=0 / decimate=1 / interlaced=0 / bluray_compat=0 / constrained_intra=0 / bframes=6 / b_pyramid=2 / b_adapt=2 / b_bias=0 / direct=1 / weightb=1 / open_gop=0 / weightp=2 / keyint=240 / keyint_min=24 / scenecut=40 / intra_refresh=0 / rc_lookahead=40 / rc=2pass / mbtree=1 / bitrate=2200 / ratetol=1.0 / qcomp=0.60 / qpmin=0 / qpmax=69 / qpstep=4 / cplxblur=20.0 / qblur=0.5 / ip_ratio=1.40 / aq=1:1.00
Language : English
Encoded date : UTC 2018-02-12 12:23:38
Tagged date : UTC 2018-02-12 12:23:44
Color range : Limited
Color primaries : BT.709
Transfer characteristics : BT.709
Matrix coefficients : BT.709
Menus : 6,7

Video #2
ID : 7
Format : JPEG
Codec ID : jpeg
Duration : 1h 45mn
Bit rate mode : Variable
Bit rate : 785 bps
Width : 640 pixels
Height : 270 pixels
Display aspect ratio : 2.40:1
Frame rate mode : Variable
Frame rate : 0.003 fps
Minimum frame rate : 0.001 fps
Maximum frame rate : 0.007 fps
Color space : YUV
Chroma subsampling : 4:2:0
Bit depth : 8 bits
Compression mode : Lossy
Bits/(Pixel*Frame) : 1.514
Stream size : 511 KiB (0%)
Title : Chapter Images
Language : English
Default : No
Encoded date : UTC 2018-02-12 12:23:52
Tagged date : UTC 2018-02-12 12:23:52
Menu For : 1

Audio #1
ID : 2
Format : AAC
Format/Info : Advanced Audio Codec
Format profile : LC
Codec ID : mp4a-40-2
Duration : 1h 45mn
Source duration : 1h 45mn
Bit rate mode : Variable
Bit rate : 126 Kbps
Maximum bit rate : 196 Kbps
Channel(s) : 2 channels
Channel positions : Front: L R
Sampling rate : 48.0 KHz
Frame rate : 46.875 fps (1024 SPF)
Compression mode : Lossy
Stream size : 95.4 MiB (5%)
Source stream size : 95.4 MiB (5%)
Title : Russian Stereo
Language : Russian
Default : Yes
Alternate group : 1
Encoded date : UTC 2018-02-12 12:23:38
Tagged date : UTC 2018-02-12 12:23:48

Audio #2
ID : 3
Format : AAC
Format/Info : Advanced Audio Codec
Format profile : LC
Codec ID : mp4a-40-2
Duration : 1h 45mn
Source duration : 1h 45mn
Bit rate mode : Variable
Bit rate : 127 Kbps
Maximum bit rate : 195 Kbps
Channel(s) : 2 channels
Channel positions : Front: L R
Sampling rate : 48.0 KHz
Frame rate : 46.875 fps (1024 SPF)
Compression mode : Lossy
Stream size : 95.6 MiB (5%)
Source stream size : 95.6 MiB (5%)
Title : English Stereo
Language : English
Default : No
Alternate group : 1
Encoded date : UTC 2018-02-12 12:23:38
Tagged date : UTC 2018-02-12 12:23:48

Text #1
ID : 4
Format : Timed Text
Muxing mode : sbtl
Codec ID : tx3g
Duration : 1h 41mn
Bit rate mode : Variable
Bit rate : 96 bps
Stream size : 71.3 KiB (0%)
Title : Russian full
Language : Russian
Default : Yes
Forced : No
Alternate group : 2
Encoded date : UTC 2018-02-12 12:23:38
Tagged date : UTC 2018-02-12 12:23:43

Text #2
ID : 5
Format : Timed Text
Muxing mode : sbtl
Codec ID : tx3g
Duration : 1h 41mn
Bit rate mode : Variable
Bit rate : 85 bps
Stream size : 63.5 KiB (0%)
Title : English full
Language : English
Default : No
Forced : No
Alternate group : 2
Encoded date : UTC 2018-02-12 12:23:38
Tagged date : UTC 2018-02-12 12:23:43

Menu #1
00:00:00.000 : 00:00:00.000
00:06:02.153 : 00:06:02.153
00:15:28.886 : 00:15:28.845
00:17:56.367 : 00:17:56.367
00:21:30.456 : 00:21:30.456
00:28:05.559 : 00:28:05.559
00:33:13.158 : 00:33:13.158
00:42:36.554 : 00:42:36.554
00:46:16.274 : 00:46:16.273
00:53:10.729 : 00:53:10.729
00:58:43.145 : 00:58:43.145
01:05:58.955 : 01:05:58.872
01:11:50.306 : 01:11:50.306
01:15:08.379 : 01:15:08.379
01:26:46.201 : 01:26:46.201
01:33:46.204 : 01:33:46.204

Menu #2
ID : 6
Codec ID : text
Duration : 1h 45mn
Language : English
Encoded date : UTC 2018-02-12 12:23:48
Tagged date : UTC 2018-02-12 12:23:48
Bit rate mode : CBR
Menu For : 1
00:00:00.000 : 00:00:00.000
00:06:02.153 : 00:06:02.153
00:15:28.886 : 00:15:28.845
00:17:56.367 : 00:17:56.367
00:21:30.456 : 00:21:30.456
00:28:05.559 : 00:28:05.559
00:33:13.158 : 00:33:13.158
00:42:36.554 : 00:42:36.554
00:46:16.274 : 00:46:16.273
00:53:10.729 : 00:53:10.729
00:58:43.145 : 00:58:43.145
01:05:58.955 : 01:05:58.872
01:11:50.306 : 01:11:50.306
01:15:08.379 : 01:15:08.379
01:26:46.201 : 01:26:46.201
01:33:46.204 : 01:33:46.204
x264 [info]: frame I:1629 Avg QP:12.52 size: 70485
x264 [info]: frame P:36403 Avg QP:15.62 size: 22505
x264 [info]: frame B:113720 Avg QP:17.34 size: 7082
x264 [info]: consecutive B-frames: 3.8% 4.3% 9.7% 20.0% 21.6% 31.1% 9.5%
x264 [info]: mb I I16..4: 9.8% 72.2% 18.0%
x264 [info]: mb P I16..4: 1.7% 10.7% 2.6% P16..4: 35.5% 28.0% 15.6% 0.0% 0.0% skip: 6.1%
x264 [info]: mb B I16..4: 0.1% 1.0% 0.3% B16..8: 41.6% 13.0% 3.5% direct: 3.9% skip:36.5% L0:46.0% L1:44.9% BI: 9.0%
x264 [info]: 8x8 transform intra:71.8% inter:69.6%
x264 [info]: coded y,uvDC,uvAC intra: 88.5% 85.7% 67.4% inter: 27.4% 21.8% 4.2%
x264 [info]: i16 v,h,dc,p: 22% 13% 7% 58%
x264 [info]: i8 v,h,dc,ddl,ddr,vr,hd,vl,hu: 10% 8% 4% 10% 15% 14% 14% 12% 13%
x264 [info]: i4 v,h,dc,ddl,ddr,vr,hd,vl,hu: 9% 7% 2% 10% 16% 15% 15% 12% 14%
x264 [info]: i8c dc,h,v,p: 40% 24% 20% 17%
x264 [info]: Weighted P-Frames: Y:2.0% UV:1.0%
x264 [info]: ref P L0: 50.5% 9.2% 16.0% 7.0% 5.5% 4.2% 3.4% 2.0% 2.0% 0.1% 0.0%
x264 [info]: ref B L0: 71.5% 12.5% 6.7% 3.3% 2.4% 2.0% 1.2% 0.3%
x264 [info]: ref B L1: 93.6% 6.4%
x264 [info]: kb/s:2198.61

Apple TV, iPad, iPhone, iPod Touch.
Windows VLC media player

 ·  , , FAQ-
:  [ 12--2018 16:42 ]

  

.torrent

.torrent 36 KB


: 1.81 GB
(hash) : f6ff4598ad4ce3f70461756a251a717a378b1be2
··
...

[iPad] Accident Man . !

!