↳ Soudní síň KOTEL | Casa Facile Ottobre 2012 | Watch online

Скачать через торрент Призраки Ghosted Фильм бесплатно в хорошем качестве torrent

Скачивайте на UnionPeer.org фильмы через торрент без регистрации. Новинки кино в хорошем качестве через торрент. На UnionPeer.org можно скачать через торрент фильмы 2014 и 2015 годов. Самые новые фильмы.

Скачать торрент Призраки Ghosted бесплатно через .torrent фильм мультфильм сериал

Статистика раздачи
Размер:  5.25 GB   |    Зарегистрирован:  6 месяцев   |    .torrent скачан:  44 раза   |   
Раздают:  1  
   
загрузка...
 
Автор Сообщение

Galfimbul

avatar Galfimbul


Призраки / Ghosted

Год выпуска: 2017
Страна: США
Жанр: Ужасы, фантастика, фэнтези, комедия, детектив
Продолжительность: ~ 00:23:00

Перевод: Профессиональный (многоголосый закадровый) (AMS)

Режиссёр: Роб Шраб, Джеми Бэббит, Дин Холлэнд

В ролях: Адам Скотт, Крэйг Робинсон, Элли Уокер, Адиль Ахтар, Эмбер Стивенс, Бриттни Лоуэр, Тиша Френч, Этан Дрэйк Дэвис, Блейк Андерсон, Сара Бэйкери другие

Описание:
Это история о скептике и цинике Лерое Райте и свято верящим во всякую чертовщину Максе Эллисоне. Секретное исследовательское бюро нанимает главных героев для слежки за вспышкой паранормальной активности в Лос-Анджелесе. Изучая аномалию, Райт и Эллисон обнаруживают более серьёзную тайну, угрожающую гибелью всему человечеству.

/ Сэмпл

Качество: WEBRip 720p
Контейнер: MKV

Видео: AVC, 1280x720 (16:9), 25.976 fps, ~ 3120 kbps, 0.141 bit/pixel
Аудио 1: Русский, AC3, 48 KHz, 6 channels, 640 kbps
Аудио 2: Английский, AC3, 48 KHz, 6 channels, 640 kbps
Субтитры: Английские [Softsub SRT]

Реклама: Присутствует звуковая (два раза: в начале и конце по 12 сек)
General
Unique ID : 193717046264408803273564431858362372966 (0x91BC8BC790ECE0197740ACB90B1E5366)
Complete name : /Ghosted.S01.720p.WEB-DL.AMS/Ghosted.S01E01.720p.WEB-DL.AMS.mkv
Format : Matroska
Format version : Version 4 / Version 2
File size : 754 MiB
Duration : 23mn 56s
Overall bit rate mode : Variable
Overall bit rate : 4 403 Kbps
Encoded date : UTC 2017-11-11 06:32:46
Writing application : mkvmerge v8.2.0 ('World of Adventure') 64bit
Writing library : libebml v1.3.1 + libmatroska v1.4.2

Video
ID : 1
Format : AVC
Format/Info : Advanced Video Codec
Format profile : [email protected]
Format settings, CABAC : Yes
Format settings, ReFrames : 5 frames
Codec ID : V_MPEG4/ISO/AVC
Duration : 23mn 56s
Bit rate mode : Variable
Bit rate : 3 120 Kbps
Maximum bit rate : 4 500 Kbps
Width : 1 280 pixels
Height : 720 pixels
Display aspect ratio : 16:9
Frame rate mode : Constant
Frame rate : 23.976 (24000/1001) fps
Color space : YUV
Chroma subsampling : 4:2:0
Bit depth : 8 bits
Scan type : Progressive
Bits/(Pixel*Frame) : 0.141
Stream size : 534 MiB (71%)
Language : English
Default : Yes
Forced : No
Color range : Limited
Color primaries : BT.709
Transfer characteristics : BT.709
Matrix coefficients : BT.709

Audio #1
ID : 2
Format : AC-3
Format/Info : Audio Coding 3
Mode extension : CM (complete main)
Format settings, Endianness : Big
Codec ID : A_AC3
Duration : 23mn 56s
Bit rate mode : Constant
Bit rate : 640 Kbps
Channel(s) : 6 channels
Channel positions : Front: L C R, Side: L R, LFE
Sampling rate : 48.0 KHz
Frame rate : 31.250 fps (1536 spf)
Compression mode : Lossy
Stream size : 110 MiB (15%)
Language : Russian
Default : Yes
Forced : No

Audio #2
ID : 3
Format : E-AC-3
Format/Info : Audio Coding 3
Format settings, Endianness : Big
Codec ID : A_EAC3
Duration : 23mn 56s
Bit rate mode : Constant
Bit rate : 640 Kbps
Channel(s) : 6 channels
Channel positions : Front: L C R, Side: L R, LFE
Sampling rate : 48.0 KHz
Frame rate : 187.500 fps (256 spf)
Compression mode : Lossy
Stream size : 110 MiB (15%)
Language : English
Default : No
Forced : No

Text
ID : 4
Format : UTF-8
Codec ID : S_TEXT/UTF8
Codec ID/Info : UTF-8 Plain Text
Duration : 23mn 52s
Bit rate : 107 bps
Count of elements : 653
Stream size : 18.8 KiB (0%)
Language : English
Default : No
Forced : No


Трекер:  [ 12-Фев-2018 11:24 ]

  

Скачать .torrent

Размер .torrent файла 53 KB


Размер: 5.25 GB
Хэш (hash) релиза: 8af353a1e213b525927cf19dee051a7e22ae3ed6
Подписка на обновления:

Еще никто не оставлял запись к записи скачать торрент Призраки Ghosted . Будь первым!

!Обратная связь