Про динозавров
Про драконов

Скачать через торрент Дочки-мачехи Серии: 1-4 из 4 Фильм бесплатно в хорошем качестве torrent

Скачивайте на UnionPeer.org фильмы через торрент без регистрации. Новинки кино в хорошем качестве через торрент. На UnionPeer.org можно скачать через торрент фильмы 2014 и 2015 годов. Самые новые фильмы.

Скачать торрент Дочки-мачехи Серии: 1-4 из 4 бесплатно через .torrent фильм мультфильм сериал

Если у вас наблюдаются проблемы со скриншотами, переходом по ссылками, скачиванием торрентов - проблемы в блокировщике рекламы AdBlock. #хорошегоДня!


Статистика раздачи
Размер:  2.34 GB   |    Зарегистрирован:  10 дней   |    .torrent скачан:  60 раз   |   
Раздают:  1  
   
Загрузка...
 
Автор Сообщение

Galfimbul

avatar Galfimbul


Дочки-мачехи

Год выпуска: 2017
Производство: Star Media
Жанр: мелодрама
Продолжительность: ~00:45:00 серия
Субтитры: нет

Режиссёр: Дмитрий Лактионов

В ролях: Анна Кошмал, Анастасия Чепелюк, Сергей Фролов, Дмитрий Сова, Светлана Зельбет, Влад Никитюк, Наталья Кленина

Описание: Ира, молодая выпускница экономического вуза, находится в сложной жизненной ситуации. После неудачных поисков работы ей приходится пойти работать продавцом в парфюмерный магазин, чтобы оплатить лечение мамы. Однажды в одной из посетительниц Ира узнает свою школьную подругу Алину. Узнав о проблемах Иры, Алина уговаривает своего отца Сергея, владельца фармацевтической компании, взять Иру на работу. Новый этап в жизни окрыляет Иру, теперь у нее есть работа и перспектива карьерного роста. Появляется возможность вылечить маму и снять отдельное жилье с женихом Антоном, с которым у Иры в скором времени намечалась свадьба.... Которой не будет. Алина решает отбить у подруги парня. Антон, эгоистичный и малодушный парень, отвечает на чувства девушки и предает свою невесту. Из депрессии после измены Антона Иру вытаскивает Сергей, который оказывает ей знаки внимания и поддерживает ее в этот тяжелый период.. И когда Сергей предлагает Ире связать с ним жизнь, она соглашается, несмотря на то, что все еще любит Антона...

Реклама: Нет.

Кинопоиск
Все раздачи сериала
Sample

Качество: WEBRip - Files-x
Формат: AVI
Видео кодек: XviD
Аудио кодек: AC3
Видео: 720x400 (1.80:1), 25 fps, XviD build 73 ~1650 kbps avg, 0.227 bit/pixel
Аудио: 48.0 kHz, AC3 Dolby Digital, 2/0 (L,R) ch, ~ 192 kbps
General
Complete name : D:\Docki.macechi.2017.WEB-DLRip.Files-x\01.Docki.macechi.2017.WEB-DLRip.Files-x.avi
Format : AVI
Format/Info : Audio Video Interleave
File size : 596 MiB
Duration : 45mn 19s
Overall bit rate : 1 839 Kbps
Writing application : VirtualDubMod 1.5.10.3 | www.virtualdub-fr.org || (build 2550/release)
Writing library : VirtualDubMod build 2550/release

Video
ID : 0
Format : MPEG-4 Visual
Format profile : Advanced [email protected]
Format settings, BVOP : 1
Format settings, QPel : No
Format settings, GMC : No warppoints
Format settings, Matrix : Custom
Codec ID : XVID
Codec ID/Hint : XviD
Duration : 45mn 19s
Bit rate : 1 637 Kbps
Width : 720 pixels
Height : 400 pixels
Display aspect ratio : 16:9
Frame rate : 25.000 fps
Color space : YUV
Chroma subsampling : 4:2:0
Bit depth : 8 bits
Scan type : Progressive
Compression mode : Lossy
Bits/(Pixel*Frame) : 0.227
Stream size : 531 MiB (89%)
Writing library : XviD 73

Audio
ID : 1
Format : AC-3
Format/Info : Audio Coding 3
Mode extension : CM (complete main)
Format settings, Endianness : Big
Codec ID : 2000
Duration : 45mn 19s
Bit rate mode : Constant
Bit rate : 192 Kbps
Channel count : 2 channels
Channel positions : Front: L R
Sampling rate : 48.0 KHz
Bit depth : 16 bits
Compression mode : Lossy
Stream size : 62.2 MiB (10%)
Alignment : Split accross interleaves
Interleave, duration : 40 ms (1.00 video frame)
Interleave, preload duration : 500 ms


Трекер:  [ 12-Фев-2018 07:48 ]

  

Скачать .torrent

Размер .torrent файла 12 KB


Размер: 2.34 GB
Хэш (hash) релиза: 9230c10c5d60c4c461d73a4072882847142a384d
Подписка на обновления:

Торренты, похожие на Дочки-мачехи Серии: 1-4 из 4 скачать торрент

Форум Название Автор Размер S L Добавлен
Российские сериалы ·· Дочки-мачехи / Серии: 1-4 из 4 (Дмитрий Лактионов) [2017, мелодрама, WEBRip-AVC] Galfimbul 25995803892.42 GB 2 0 1518411087

07:51

12-Фев-18

Еще никто не оставлял запись к записи скачать торрент Дочки-мачехи Серии: 1-4 из 4 . Будь первым!

!Обратная связь