Marymount University Reviews | Once Upon a Time: Darkness on the Edge of Town S04 E12 Mar. 1, 2015 Mr. Gold forms a villain team with Ursula, Cruella, and Maleficent to plot revenge against the heroes. Emma and the gang discovers a new mystery; a dark side of Story Brooke. | Thomas La Barbera Christensen

Скачать через торрент Держи меня за руку Серии: 1-4 из 4 Фильм бесплатно в хорошем качестве torrent

Скачивайте на UnionPeer.org фильмы через торрент без регистрации. Новинки кино в хорошем качестве через торрент. На UnionPeer.org можно скачать через торрент фильмы 2014 и 2015 годов. Самые новые фильмы.

Скачать торрент Держи меня за руку Серии: 1-4 из 4 бесплатно через .torrent фильм мультфильм сериал

Если у вас наблюдаются проблемы со скриншотами, переходом по ссылками, скачиванием торрентов - проблемы в блокировщике рекламы AdBlock. #хорошегоДня!


Статистика раздачи
Размер:  4.19 GB   |    Зарегистрирован:  6 дней   |    .torrent скачан:  39 раз   |   
Раздают:  1  
   
Загрузка...
 
Автор Сообщение

Galfimbul

avatar Galfimbul


Держи меня за руку

Год выпуска: 2017
Производство: Bubblegum Production
Жанр: мелодрама
Продолжительность: ~00:40:00 серия
Субтитры: нет

Режиссёр: Пётр Борисов

В ролях: Елена Дудина, Евгений Воловенко, Александр Кульков, Валентина Ляпина, Мария Лобанова, Николай Тумилович, Вадим Ракитин, Марина Богатова, Лариса Кузнецова, Павел Савинов, Владимир Терещенко, Ирина Ильинская, Алексей Малашкин, Виталия Корниенко

Описание: Год назад в результате несчастного случая погиб маленький сын главной героини Ани . С тех пор счастье ушло из ее дома, а муж Юра , бывший начальник конезавода и мужчина ее мечты, совсем спился. Аня что угодно бы отдала, чтобы снова стать матерью, но муж после смерти сына вообще больше не хочет иметь детей. Не удивительно, что Анна разочаровалась в жизни и больше не ждет от нее чудес. Словно в подтверждение этого, Юра попадает в больницу, и чтобы оплачивать счета за его лечение, Ане приходится искать вторую работу. Она устраивается няней к овдовевшему бизнесмену – в дом к трем его маленьким, избалованным и непослушным дочерям. Сумеет ли Аня справиться со сложными детьми и сохранить работу?

Реклама: Нет.

Кинопоиск

Sample

Качество: HDTVRip 720p - Nikolspup
Формат: MKV
Видео кодек: H.264
Аудио кодек: AC3
Видео: MPEG4 AVC Video, H264, 16:9, 1280x720, 25 fps, ~3500 kbps, 0.152 bit/pixel
Аудио: AC3 Dolby Digital, 48 kHz, 2/0 (L,R) ch, 192 kbp
General
Unique ID : 239987420635685302787095088038267588226 (0xB48BE55E262F4874BE80BE83A5800E82)
Complete name : D:\Derzhi.menja.za.ruku.2017.HDTVRip.(720p).Nikolspup\Derzhi.menja.za.ruku.(01.seriya.iz.02).2017.HDTVRip.(720p).Nikolspup.mkv
Format : Matroska
Format version : Version 4 / Version 2
File size : 1.89 GiB
Duration : 1h 13mn
Overall bit rate : 3 692 Kbps
Encoded date : UTC 2018-02-12 02:40:58
Writing application : mkvmerge v7.8.0 ('River Man') 32bit built on Apr 3 2015 12:11:22
Writing library : libebml v1.3.1 + libmatroska v1.4.2
DURATION : 01:13:06.208000000
NUMBER_OF_FRAMES : 137069
NUMBER_OF_BYTES : 105268992
_STATISTICS_WRITING_APP : mkvmerge v7.8.0 ('River Man') 32bit built on Apr 3 2015 12:11:22
_STATISTICS_WRITING_DATE_UTC : 2018-02-12 02:40:58
_STATISTICS_TAGS : BPS DURATION NUMBER_OF_FRAMES NUMBER_OF_BYTES

Video
ID : 1
Format : AVC
Format/Info : Advanced Video Codec
Format profile : [email protected]
Format settings, CABAC : Yes
Format settings, ReFrames : 9 frames
Codec ID : V_MPEG4/ISO/AVC
Duration : 1h 13mn
Bit rate : 3 500 Kbps
Width : 1 280 pixels
Height : 720 pixels
Display aspect ratio : 16:9
Frame rate mode : Constant
Frame rate : 25.000 fps
Color space : YUV
Chroma subsampling : 4:2:0
Bit depth : 8 bits
Scan type : Progressive
Bits/(Pixel*Frame) : 0.152
Stream size : 1.75 GiB (93%)
Writing library : x264 core 146 r2538 121396c
Encoding settings : cabac=1 / ref=9 / deblock=1:-3:-3 / analyse=0x3:0x113 / me=umh / subme=11 / psy=1 / psy_rd=1.00:0.20 / mixed_ref=1 / me_range=32 / chroma_me=1 / trellis=2 / 8x8dct=1 / cqm=0 / deadzone=21,11 / fast_pskip=1 / chroma_qp_offset=-3 / threads=6 / lookahead_threads=1 / sliced_threads=0 / nr=0 / decimate=0 / interlaced=0 / bluray_compat=0 / constrained_intra=0 / bframes=11 / b_pyramid=2 / b_adapt=2 / b_bias=0 / direct=3 / weightb=1 / open_gop=0 / weightp=2 / keyint=250 / keyint_min=25 / scenecut=40 / intra_refresh=0 / rc_lookahead=60 / rc=2pass / mbtree=1 / bitrate=3500 / ratetol=1.0 / qcomp=0.60 / qpmin=0 / qpmax=69 / qpstep=4 / cplxblur=20.0 / qblur=0.5 / vbv_maxrate=14000 / vbv_bufsize=14000 / nal_hrd=none / filler=0 / ip_ratio=1.40 / aq=3:1.00
Default : No
Forced : No
DURATION : 01:13:06.200000000
NUMBER_OF_FRAMES : 109655
NUMBER_OF_BYTES : 1918084861
_STATISTICS_WRITING_APP : mkvmerge v7.8.0 ('River Man') 32bit built on Apr 3 2015 12:11:22
_STATISTICS_WRITING_DATE_UTC : 2018-02-12 02:40:58
_STATISTICS_TAGS : BPS DURATION NUMBER_OF_FRAMES NUMBER_OF_BYTES
Color primaries : BT.709
Transfer characteristics : BT.709
Matrix coefficients : BT.709

Audio
ID : 2
Format : AC-3
Format/Info : Audio Coding 3
Mode extension : CM (complete main)
Format settings, Endianness : Big
Codec ID : A_AC3
Duration : 1h 13mn
Bit rate mode : Constant
Bit rate : 192 Kbps
Channel count : 2 channels
Channel positions : Front: L R
Sampling rate : 48.0 KHz
Bit depth : 16 bits
Compression mode : Lossy
Stream size : 100 MiB (5%)
Language : Russian
Default : Yes
Forced : Yes


Трекер:  [ 12-Фев-2018 07:48 ]

  

Скачать .torrent

Размер .torrent файла 21 KB


Размер: 4.19 GB
Хэш (hash) релиза: 1bb864f85f090d5ec943ea01c75f6a279e11194b
Подписка на обновления:

Торренты, похожие на Держи меня за руку Серии: 1-4 из 4 скачать торрент

Форум Название Автор Размер S L Добавлен
Российские сериалы ·· Держи меня за руку / Серии: 1-4 из 4 (Пётр Борисов) [2017, мелодрама, SATRip-AVC] aleksan55 20661090811.92 GB 0 0 1518393816

03:03

12-Фев-18

Еще никто не оставлял запись к записи скачать торрент Держи меня за руку Серии: 1-4 из 4 . Будь первым!

!Обратная связь