Bruce Blackshear | GVG-245 Manzuri Love Busty Dirty Student Council President Kinami Nichina | hd Stranger in Our House

Скачать через торрент Непутевый ученик в школе магии бесплатно Аниме Все серии на русском torrent

Статистика раздачи
Размер:  1.28 GB   |    Зарегистрирован:  4 месяца 10 дней   |    .torrent скачан:  54 раза   |   
Раздают:  1  
   
загрузка...
 
Автор Сообщение

Galfimbul

avatar Galfimbul


Непутевый ученик в школе магии (фильм) / Gekijouban Mahouka Koukou no Rettousei: Hoshi o Yobu Shoujo
Страна:
Год выпуска: 2017
Жанр: приключения
Тип: Movie
Продолжительность: 90 мин.
Режиссер: Ёсида Рисако
Студия:

Описание:
На момент повествования истории время года уже сменилось, и вскоре настанет весна. Тацуя и его сестра Миюки окончили свой первый год в Первой Магической Школе, и теперь наконец-то могут отправиться на весенние каникулы. Парочка собралась расслабиться на своей вилле, расположенной на острове Огасавара. Но только брат с сестрой начинают наслаждаться долгожданным отдыхом и покоем, как оба встречают молодую девушку, представившуюся Кокоа. Из рассказанной ею истории Тацуя и Миюки узнают, что Кокоа сбежала с военно-морской базы. Однако и тут не все так просто: загадочная особа просит Тацую исполнить одно ее желание.
© randomkun
Доп. информация: AniDB || World Art || MAL
Качество: BDRip
Тип релиза: Без хардсаба
Формат видео: MP4
Наличие линковки: Нет
Релиз/Автор рипа: [Ohys-Raws]
Видео: AVC, 1280x720, 1 833 kb/s, 23.976 FPS, 8 bits
Аудио: AAC, 208 kb/s, 48.0 kHz, 2 channels
Субтитры: ASS, внешние
Перевод: [YakuSub Studio]
Редактор: Arashi-sama
Переводчик/Перевод песен/Оформление:Nika_Elrik
General
Complete name                  : G:\L\[Ohys-Raws] Gekijouban Mahouka Koukou no Rettousei Hoshi o Yobu Shoujo (BD 1280x720 x264 AAC)\[Ohys-Raws] Gekijouban Mahouka Koukou no Rettousei Hoshi o Yobu Shoujo (BD 1280x720 x264 AAC).mp4
Format                         : MPEG-4
Format profile                 : Base Media
Codec ID                       : isom (isom/avc1)
File size                      : 1.28 GiB
Duration                       : 1 h 29 min
Overall bit rate mode          : Variable
Overall bit rate               : 2 045 kb/s
Encoded date                   : UTC 2018-01-25 06:13:17
Tagged date                    : UTC 2018-01-25 06:13:17

Video
ID                             : 1
Format                         : AVC
Format/Info                    : Advanced Video Codec
Format profile                 : [email protected]
Format settings, CABAC         : Yes
Format settings, ReFrames      : 4 frames
Codec ID                       : avc1
Codec ID/Info                  : Advanced Video Coding
Duration                       : 1 h 29 min
Bit rate                       : 1 833 kb/s
Maximum bit rate               : 20.1 Mb/s
Width                          : 1 280 pixels
Height                         : 720 pixels
Display aspect ratio           : 16:9
Frame rate mode                : Constant
Frame rate                     : 23.976 (24000/1001) FPS
Color space                    : YUV
Chroma subsampling             : 4:2:0
Bit depth                      : 8 bits
Scan type                      : Progressive
Bits/(Pixel*Frame)             : 0.083
Stream size                    : 1.15 GiB (90%)
Writing library                : x264 core 155 r2867+74 66b5600 t_mod_Custom_2 [[email protected] X86_64]
Encoding settings              : cabac=1 / ref=3 / deblock=1:0:0 / analyse=0x1:0x131 / me=umh / subme=9 / psy=1 / fade_compensate=0.00 / psy_rd=1.00:0.00 / mixed_ref=1 / me_range=32 / chroma_me=1 / trellis=1 / 8x8dct=0 / cqm=0 / deadzone=21,11 / fast_pskip=1 / chroma_qp_offset=-2 / threads=18 / lookahead_threads=1 / sliced_threads=0 / nr=0 / decimate=1 / interlaced=0 / bluray_compat=0 / constrained_intra=0 / fgo=0 / bframes=3 / b_pyramid=2 / b_adapt=1 / b_bias=0 / direct=1 / weightb=1 / open_gop=0 / weightp=2 / keyint=240 / keyint_min=1 / scenecut=40 / intra_refresh=0 / rc_lookahead=40 / rc=crf / mbtree=1 / crf=18.0000 / qcomp=0.60 / qpmin=0:0:0 / qpmax=69:69:69 / qpstep=4 / ip_ratio=1.40 / aq=1:1.00 / aq-sensitivity=10.00 / aq-factor=1.00:1.00:1.00 / aq2=0 / aq3=0
Encoded date                   : UTC 2018-01-25 06:13:17
Tagged date                    : UTC 2018-01-25 06:13:34

Audio
ID                             : 2
Format                         : AAC
Format/Info                    : Advanced Audio Codec
Format profile                 : LC
Codec ID                       : 40
Duration                       : 1 h 29 min
Bit rate mode                  : Variable
Bit rate                       : 208 kb/s
Maximum bit rate               : 260 kb/s
Channel(s)                     : 2 channels
Channel positions              : Front: L R
Sampling rate                  : 48.0 kHz
Frame rate                     : 46.875 FPS (1024 spf)
Compression mode               : Lossy
Stream size                    : 134 MiB (10%)
Language                       : Japanese
Encoded date                   : UTC 2018-01-25 04:35:15
Tagged date                    : UTC 2018-01-25 06:13:34
...5519045 тут BDRip там BDRemux


Трекер:  [ 12-Фев-2018 04:01 ]

  

Скачать .torrent

Размер .torrent файла 13 KB


Размер: 1.28 GB
Хэш (hash) релиза: 80bb69a58455a47a6da4056e2cd9ce304c3d810f
Подписка на обновления:

Торренты, похожие на Непутевый ученик в школе магии скачать торрент

Форум Название Автор Размер S L Добавлен
Аниме | HD Rips ·· Бездарный ученик старшей школы магии/ Непутевый ученик в школе магии / Mahouka Koukou no Rettousei [TV] [13 из 26] [Без хардсаба] [RUS(int), JAP+SUB] [2014 г., мистика, романтика, школа, HDTVRip] [720p] Galfimbul 59600616445.55 GB 0 0 1409056246

15:30

26-Авг-14

Аниме | Rips ·· Посредственность из школы магии (фильм) / Mahouka Koukou no Rettousei Movie: Hoshi wo Yobu Shoujo / Непутёвый ученик в школе магии: Взывающая к звёздам (Ёсида Рисако) [Movie] [Без хардсаба] [RUS(int), JAP+SUB] [2017, приключения, BDRip] [720p] Galfimbul 15162797541.41 GB 0 0 1518987696

00:01

19-Фев-18

Аниме | Rips ·· Посредственность из школы магии (фильм) / Mahouka Koukou no Rettousei Movie: Hoshi wo Yobu Shoujo / Непутёвый ученик в школе магии: Взывающая к звёздам (Ёсида Рисако) [Movie] [Без хардсаба] [RUS(int), JAP+SUB] [2017, приключения, BDRip] [1080p] Galfimbul 98552948449.18 GB 0 0 1518969741

19:02

18-Фев-18

Аниме | Rips ·· Посредственность из школы магии (фильм) / Mahouka Koukou no Rettousei Movie: Hoshi wo Yobu Shoujo / Непутёвый ученик в школе магии: Взывающая к звёздам (Ёсида Рисако) [Movie] [Без хардсаба] [RUS(int), JAP+SUB] [2017, приключения, BDRip] [720p] Galfimbul 39772793863.7 GB 0 0 1518969730

19:02

18-Фев-18

Аниме | Rips ·· Непутёвый ученик в Школе Магии / Mahouka Koukou no Rettousei / The irregular at magic high school [TV] [Без хардсаба] [21 из 26] [JAP+SUB] & [16 из 26] [RUS(ext)][2014 г., магия, романтика, школа, фантастика, сёнен, WEBRip] [1080p] Galfimbul 1246461384611.61 GB 0 0 1409335234

21:00

29-Авг-14

Аниме | HD Rips ·· Непутевый ученик в школе магии / Mahouka Koukou no Rettousei / The Irregular at Magic High School (Оно Манабу) [TV+Special] [Без хардсаба] [26+7 из 26+7] [JAP+SUB] & [26+6 из 26+7] [RUS(ext)] [2014 г., мистика, романтика, школа, BDRip] [1080p] Galfimbul 3951780307836.8 GB 0 0 1472735603

16:13

1-Сен-16

Аниме | HD Rips ·· Непутевый ученик в школе магии / Mahouka Koukou no Rettousei / The Irregular at Magic High School (Оно Манабу) [TV+Special] [Без хардсаба] [26+7 из 26+7] [JAP+SUB] & [26+6 из 26+7] [RUS(ext)] [2014 г., мистика, романтика, школа, BDRip] [1080p] Galfimbul 3961120115836.89 GB 0 0 1472587517

23:05

30-Авг-16

Аниме | HD Rips ·· Непутевый ученик в школе магии / Mahouka Koukou no Rettousei / The Irregular at Magic High School (Оно Манабу) [TV] [10 из 26] [Без хардсаба] [RUS(ext), JAP+SUB] [2014 г., мистика, романтика, школа, BDRip] [1080p] Galfimbul 1478905724913.77 GB 0 0 1468941998

18:26

19-Июл-16

Аниме | HD Rips ·· Непутевый ученик в школе магии / Mahouka Koukou no Rettousei / The Irregular at Magic High School (Оно Манабу) [TV] [8 из 26] [Без хардсаба] [RUS(ext), JAP+SUB] [2014 г., мистика, романтика, школа, BDRip] [1080p] Galfimbul 1197784829411.16 GB 0 0 1468940107

17:55

19-Июл-16

Аниме | HD Rips ·· Непутевый ученик в школе магии / Mahouka Koukou no Rettousei / The Irregular at Magic High School [TV+Special] [без хардсаба] [26+7 из 26+7] [JAP+SUB] & [26+0 из 26+7] [RUS(ext)] [2014 г., мистика, романтика, школа, BDRip] [1080p] Galfimbul 4930334932445.92 GB 0 0 1438010723

18:25

27-Июл-15

Аниме | HD Rips ·· Непутевый ученик в школе магии / Mahouka Koukou no Rettousei / The Irregular at Magic High [TV+Special] [без хардсаба] [9+5 из 26+6] [JAP+SUB] & [9+0 из 26+6] [RUS(ext)] [2014 г., мистика, романтика, школа, BDRemux] [1080p] Galfimbul 6985856831765.06 GB 0 0 1415030626

19:03

3-Ноя-14

Аниме | HD Rips ·· Непутевый ученик в школе магии / Mahouka Koukou no Rettousei (Оно Манабу) [TV] [21 из 24] [Без хардсаба] [JAP+SUB] [2014 г., фантастика, приключения, школа, WEBRip] [1080p] Galfimbul 1192604463811.11 GB 0 0 1409250659

21:30

28-Авг-14

Аниме | Rips ·· Непутёвый ученик в школе магии / Mahouka Koukou no Rettousei (Манабу Оно) [TV] [01-20 из 26] [без хардсаба] [RUS(int), JAP+SUB] [2014 г., приключения, комедия, школа, фентези, HDTVRip] [720p] Galfimbul 72318016636.74 GB 0 0 1409056072

15:27

26-Авг-14

Манга ·· Hayashi Fumino, Satou Tsutomu, Kitaumi Tsuna - Mahouka Koukou no Rettousei / Непутевый ученик в Школе Магии [Manga] [Главы 1-7] [2011 г., школа, сёнэн, фэнтези, научная фантастика, сверхъестественное] [incomplete] Galfimbul 130024308124 MB 0 0 1342590600

08:50

18-Июл-12

Аниме | HD Rips ·· Непутевый ученик в школе магии (фильм) / Gekijouban Mahouka Koukou no Rettousei: Hoshi o Yobu Shoujo (Ёсида Рисако) [Movie] [без хардсаба] [JAP+SUB] [2017, приключения, BDRemux] [1080p] Galfimbul 2784687309025.93 GB 0 0 1518283888

20:31

10-Фев-18

Еще никто не оставлял запись к записи скачать торрент Непутевый ученик в школе магии . Будь первым!

!Обратная связь