Laible.und.Frisch.Do.goht.dr.Doig.2017.German.720p.BluRay.x264-iNKLUSiON | La piccola casa dei ricordi perduti | Log Horizon S2 | 720p | BDRip | English Subbed | Anicoders | x265

Скачать через торрент По ту сторону Counterpart Фильм бесплатно в хорошем качестве torrent

Скачивайте на UnionPeer.org фильмы через торрент без регистрации. Новинки кино в хорошем качестве через торрент. На UnionPeer.org можно скачать через торрент фильмы 2014 и 2015 годов. Самые новые фильмы.

Скачать торрент По ту сторону Counterpart бесплатно через .torrent фильм мультфильм сериал

Статистика раздачи
Размер:  1.54 GB   |    Зарегистрирован:  6 месяцев   |    .torrent скачан:  34 раза   |   
Раздают:  1  
   
загрузка...
 
Автор Сообщение

Galfimbul

avatar Galfimbul


По ту сторону | Counterpart
Страна: США
Год выпуска: 2018
Жанр: фантастика, триллер, драма
Продолжительность: ~ 00:57:00 серия
Перевод: Профессиональный (многоголосый закадровый) | Jaskier
Режиссер: Алик Сахаров / Alik Sakharov, Мортен Тильдум / Morten Tyldum
В главных ролях: ж.К. Симмонс, Гарри Ллойд, Назанин Бониади, Оливия Уильямс, Сара Серайокко, Ульрих Томсен, Бернхард Форхер, Кеннет Чои, Нолан Джерард Фанк, Джунс Б. Захди и др.
Описание фильма: Говард Силке, незначительный винтик в бюрократической системе, обнаруживает, что агентство, в котором он работает, на самом деле занимается охраной переходов в параллельное измерение.

<div class="post-box" style="border-color: #aed8ff; background: #003465;">Ссылка на предыдущие и альтернативные раздачи</div>
Качество: WEB-DLRip
Формат: AVI
Видео: XviD, ~ 1400 kbps, 720x400 (16:9), 23.976 fps
Аудио 1: MP3, 48,0 КГц, 2 ch, 128 kbps - Rus
Аудио 2: MP3, 48,0 КГц, 2 ch, 128 kbps - Eng
Субтитры: отсутствуют
Реклама: Присутствует звуковая (два раза в начале и конце по 12 сек.)
Перевод и озвучивание Студия Jaskier
Общее
Полное имя                               : D:\Яскъер\Counterpart. Season 1 (WEB-DLRip l 400p l Jaskier)\Counterpart.S01E01.WEB-DLRip.Rus.Eng.Jaskier.avi
Формат                                   : AVI
Формат/Информация                        : Audio Video Interleave
Размер файла                             : 767 Мбайт
Продолжительность                        : 57 м. 10 с.
Общий поток                              : 1875 Кбит/сек
Программа кодирования                    : VirtualDubMod 1.5.10.3 | www.virtualdub-fr.org || (build 2550/release)
Библиотека кодирования                   : VirtualDubMod build 2550/release

Видео
Идентификатор                            : 0
Формат                                   : MPEG-4 Visual
Профиль формата                          : Advanced [email protected]
Настройки формата                        : BVOP1 / Custom Matrix
Параметр BVOP формата                    : 1
Параметр QPel формата                    : Нет
Параметр GMC формата                     : Без точки перехода
Параметр матрицы формата                 : Выборочная
Идентификатор кодека                     : XVID
Идентификатор кодека/Подсказка           : XviD
Продолжительность                        : 57 м. 10 с.
Битрейт                                  : 1605 Кбит/сек
Ширина                                   : 720 пикселей
Высота                                   : 400 пикселей
Соотношение сторон                       : 16:9
Частота кадров                           : 23,976 (24000/1001) кадра/сек
Цветовое пространство                    : YUV
Субдискретизация насыщенности            : 4:2:0
Битовая глубина                          : 8 бит
Тип развёртки                            : Прогрессивная
Метод сжатия                             : С потерями
Бит/(Пиксели*Кадры)                      : 0.232
Размер потока                            : 656 Мбайт (86%)
Библиотека кодирования                   : XviD 73

Аудио #1
Идентификатор                            : 1
Формат                                   : MPEG Audio
Версия формата                           : Version 1
Профиль формата                          : Layer 3
Настройки формата                        : Joint stereo / MS Stereo
Идентификатор кодека                     : 55
Идентификатор кодека/Подсказка           : MP3
Продолжительность                        : 57 м. 10 с.
Вид битрейта                             : Постоянный
Битрейт                                  : 128 Кбит/сек
Каналы                                   : 2 канала
Частота                                  : 48,0 КГц
Метод сжатия                             : С потерями
Размер потока                            : 52,3 Мбайт (7%)
Выравнивание                             : Соединение по промежуткам
Продолжительность промежутка             : 42  мс. (1,00 видеокадр)
Время предзагрузки промежутка            : 504  мс.

Аудио #2
Идентификатор                            : 2
Формат                                   : MPEG Audio
Версия формата                           : Version 1
Профиль формата                          : Layer 3
Настройки формата                        : Joint stereo / MS Stereo
Идентификатор кодека                     : 55
Идентификатор кодека/Подсказка           : MP3
Продолжительность                        : 57 м. 10 с.
Вид битрейта                             : Постоянный
Битрейт                                  : 128 Кбит/сек
Каналы                                   : 2 канала
Частота                                  : 48,0 КГц
Метод сжатия                             : С потерями
Размер потока                            : 52,3 Мбайт (7%)
Выравнивание                             : Соединение по промежуткам
Продолжительность промежутка             : 42  мс. (1,00 видеокадр)
Время предзагрузки промежутка            : 504  мс.
Когда раздача ведётся путём добавления новых серий, при каждом добавлении создётся новый торрент. Чтобы начать докачку новой серии, пользователям необходимо сделать следующее:
(1) остановить скачивание,
(2) удалить старый торрент у себя из клиента (старые серии удалять не надо),
(3) скачать новый торрент и запустить его у себя в клиенте вместо старого, при этом указать клиенту путь в старую папку, куда и должно происходить скачивание новых серий.
Ваш клиент при этом должен произвести хеширование (проверку) старой папки (если не производит сам - помогите ему сделать это), и будет докачивать только те серии, которых у вас ещё нет. Старые серии при этом не удаляются, а продолжают раздаваться!
Eсли вы уже удалили старые серии, то предотвратить повторную закачку старых серий можно, отжав галочку в соответсвующих местах при запуске нового торрента. По возможности, желательно не удалять старые серии как можно дольше, чтобы релизёр не столько продолжал раздавать старые серии, а смог сконцентрироваться на новых.



Трекер:  [ 12-Фев-2018 01:18 ]

  

Скачать .torrent

Размер .torrent файла 16 KB


Размер: 1.54 GB
Хэш (hash) релиза: 8db2b6546038d8dec01a3f8f72e294f9659df549
Подписка на обновления:

Торренты, похожие на По ту сторону Counterpart скачать торрент

Форум Название Автор Размер S L Добавлен
Зарубежные сериалы ·· По ту сторону / Обратная сторона / Counterpart / Сезон: 1 / Серии: 1-2 из 10 (Алик Сахаров, Мортен Тильдум) [2018, США, фантастика, триллер, драма, WEB-DLRip] MVO (Good People) + Original Galfimbul 33331773443.1 GB 0 0 1518807418

21:56

16-Фев-18

Еще никто не оставлял запись к записи скачать торрент По ту сторону Counterpart . Будь первым!

!Обратная связь