Christoph Waltz | Read More... | To Kill A Stranger

Скачать через торрент Держи меня за руку Серии: 1-2 из 2 Фильм бесплатно в хорошем качестве torrent

Скачивайте на UnionPeer.org фильмы через торрент без регистрации. Новинки кино в хорошем качестве через торрент. На UnionPeer.org можно скачать через торрент фильмы 2014 и 2015 годов. Самые новые фильмы.

Скачать торрент Держи меня за руку Серии: 1-2 из 2 бесплатно через .torrent фильм мультфильм сериал

Если у вас наблюдаются проблемы со скриншотами, переходом по ссылками, скачиванием торрентов - проблемы в блокировщике рекламы AdBlock. #хорошегоДня!


Статистика раздачи
Размер:  2.73 GB   |    Зарегистрирован:  6 дней   |    .torrent скачан:  29 раз   |   
Раздают:  2  
   
Загрузка...
 
Автор Сообщение

Galfimbul

avatar Galfimbul


Держи меня за руку
Год выпуска: 2017
Производство: Bubblegum Production
Жанр: Мелодрамма
Продолжительность: 01:28:00
Субтитры: нет
Режиссёр: Пётр Борисов
В ролях: Елена Дудина, Евгений Воловенко, Александр Кульков, Валентина Ляпина, Мария Лобанова, Николай Тумилович, Вадим Ракитин, Марина Богатова, Лариса Кузнецова, Павел Савинов, Владимир Терещенко, Ирина Ильинская, Алексей Малашкин, Виталия Корниенко
Описание: Год назад в результате несчастного случая погиб маленький сын главной героини Ани (Елена Дудина). С тех пор счастье ушло из ее дома, а муж Юра (Александр Кульков), бывший начальник конезавода и мужчина ее мечты, совсем спился.
Аня что угодно бы отдала, чтобы снова стать матерью, но муж после смерти сына вообще больше не хочет иметь детей. Не удивительно, что Анна разочаровалась в жизни и больше не ждет от нее чудес. Словно в подтверждение этого, Юра попадает в больницу, и чтобы оплачивать счета за его лечение, Ане приходится искать вторую работу.
Она устраивается няней к овдовевшему бизнесмену – в дом к трем его маленьким, избалованным и непослушным дочерям. Сумеет ли Аня справиться со сложными детьми и сохранить работу?..
Сэмпл: http://multi-up.com/1186847
Релиз от:
Качество: WEBRip
Формат: AVI
Видео кодек: XviD
Аудио кодек: AC3
Видео: 720x400 (16:9), 25.000 fps, XviD build 73, 2002 Kbps, 0.27 bits/pixel
Аудио: 48 kHz, AC3 Dolby Digital, 2 ch, 192 Kbps

Реклама: Нет
General
Complete name : Downloads\Держи меня за руку .2017.WEB-DLRip.Files-x
Format : AVI
Format/Info : Audio Video Interleave
File size : 1.37 GiB
Duration : 1h 28mn
Overall bit rate : 2 203 Kbps
Writing application : VirtualDubMod 1.5.10.3 | www.virtualdub-fr.org || (build 2550/release)
Writing library : VirtualDubMod build 2550/release
Video #0
ID : 0
Format : MPEG-4 Visual
Format profile : Advanced [email protected]
Format settings, BVOP : 1
Format settings, QPel : No
Format settings, GMC : No warppoints
Format settings, Matrix : Custom
Codec ID : XVID
Codec ID/Hint : XviD
Duration : 1h 28mn
Bit rate : 2 002 Kbps
Width : 720 pixels
Height : 400 pixels
Display aspect ratio : 16:9
Frame rate : 25.000 fps
Color space : YUV
Chroma subsampling : 4:2:0
Bit depth : 8 bits
Scan type : Progressive
Compression mode : Lossy
Bits/(Pixel*Frame) : 0.278
Stream size : 1.24 GiB (91%)
Writing library : XviD 73
Audio #1
ID : 1
Format : AC-3
Format/Info : Audio Coding 3
Mode extension : CM (complete main)
Format settings, Endianness : Big
Codec ID : 2000
Duration : 1h 28mn
Bit rate mode : Constant
Bit rate : 192 Kbps
Channel(s) : 2 channels
Channel positions : Front: L R
Sampling rate : 48.0 KHz
Bit depth : 16 bits
Compression mode : Lossy
Stream size : 122 MiB (9%)
Alignment : Split accross interleaves
Interleave, duration : 40 ms (1.00 video frame)
Interleave, preload duration : 500 ms
Предыдущие и альтернативные раздачи

Трекер:  [ 11-Фев-2018 23:18 ]

  

Скачать .torrent

Размер .torrent файла 14 KB


Размер: 2.73 GB
Хэш (hash) релиза: a2b1b2045975f424486c02510a9b92507ffe91b7
Подписка на обновления:

Еще никто не оставлял запись к записи скачать торрент Держи меня за руку Серии: 1-2 из 2 . Будь первым!

!Обратная связь