Tony Yo-ning Yang | Arts Martiaux | Drum Pads - Beat Maker Go

Скачать через торрент Чужестранка Outlander Фильм бесплатно в хорошем качестве torrent

Скачивайте на UnionPeer.org фильмы через торрент без регистрации. Новинки кино в хорошем качестве через торрент. На UnionPeer.org можно скачать через торрент фильмы 2014 и 2015 годов. Самые новые фильмы.

Скачать торрент Чужестранка Outlander бесплатно через .torrent фильм мультфильм сериал

Статистика раздачи
Размер:  19.87 GB   |    Зарегистрирован:  6 месяцев   |    .torrent скачан:  28 раз   |   
Раздают:  1  
   
загрузка...
 
Автор Сообщение

Galfimbul

avatar Galfimbul


Чужестранка | Outlander

Год выпуска: 2017
Страна: США, Left Bank Productions, Sony Pictures Television
Жанр: Фантастика, драма, мелодрама, экранизация
Продолжительность: ~ 00:45:00
Перевод: Профессиональный (многоголосый закадровый) | Jaskier
Режиссёр: Джон Дал, Анна Ферстер, Брайан Келли, Метин Хусейн, Фил Джон, Майк Баркер, Ричард Кларк
В ролях: Катрина Балф, Сэм Юэн, Тобайас Мензис, Грэм МакТавиш, Дункан Лакруа, Грант О`Рурк, Стивен Уолтерс, Джеймс Флит, Трэйси Уилкинсон, Финн Ден Хертог, Билл Патерсон, Нелл Хадсон, Гари Льюис, Лотте Вербеек, Аннет Бэдленд, Лора Доннелли, Стивен Кри, Джон Хеффернан, Прентис Хэнкок, Дуглас Расселл, Тим МакИннерни, Джон Сешнс, Саймон Кэллоу
Описание: Клэр, работавшая медсестрой во время Второй мировой войны, случайно перемещается во времени и попадает в 1743 год. В этом мире, полном приключений, она знакомится с шотландским рыцарем Джейми. У героев завязывается страстный роман, несмотря на то, что сердце Клэр разрывается между двумя мужчинами — Джейми и ее мужем Фрэнком, который остался в другом времени.


Качество: WEBRip 720p
Формат: MKV
Видео: 1280x720 (16:9) | X264 | ~2233 kbps | 23.976 fps
Аудио 1: AC3, 48,0 КГц, 6 ch, 384 kbps - [RUS]
Аудио 2: AC3, 48,0 КГц, 6 ch, 384 kbps - [ENG]
Субтитры: отсутствуют
Реклама: Присутствует звуковая (два раза в начале и конце по 10 сек.)
Ссылка на предыдущие и альтернативные раздачи
Переведено и озвучено: студией Jaskier
Общее
Уникальный идентификатор                 : 276823699023565218559535478201760234132 (0xD0424E1CC613A5830269EA50657E3A94)
Полное имя                               : F:\Jaskier\Outlander Season 3 (WEBRip l 720p l Jaskier)\Outlander.S03E01.WEBRip.720p.Jaskier.mkv
Формат                                   : Matroska
Версия формата                           : Version 4 / Version 2
Размер файла                             : 1,24 Гбайт
Продолжительность                        : 54 м. 19 с.
Режим общего битрейта                    : Переменный
Общий поток                              : 3259 Кбит/сек
Дата кодирования                         : UTC 2018-02-11 12:22:34
Программа кодирования                    : mkvmerge v19.0.0 ('Brave Captain') 64-bit
Библиотека кодирования                   : libebml v1.3.5 + libmatroska v1.4.8

Видео
Идентификатор                            : 1
Формат                                   : AVC
Формат/Информация                        : Advanced Video Codec
Профиль формата                          : [email protected]
Настройки формата                        : CABAC / 5 Ref Frames
Параметр CABAC формата                   : Да
Параметр RefFrames формата               : 5 кадров
Идентификатор кодека                     : V_MPEG4/ISO/AVC
Продолжительность                        : 54 м. 19 с.
Вид битрейта                             : Переменный
Битрейт                                  : 2233 Кбит/сек
Максимальный битрейт                     : 4500 Кбит/сек
Ширина                                   : 1280 пикселей
Высота                                   : 720 пикселей
Соотношение сторон                       : 16:9
Режим частоты кадров                     : Постоянный
Частота кадров                           : 23,976 (24000/1001) кадра/сек
Цветовое пространство                    : YUV
Субдискретизация насыщенности            : 4:2:0
Битовая глубина                          : 8 бит
Тип развёртки                            : Прогрессивная
Бит/(Пиксели*Кадры)                      : 0.101
Размер потока                            : 868 Мбайт (69%)
Default                                  : Да
Forced                                   : Нет
Цветовой диапазон                        : Limited
Основные цвета                           : BT.709
Характеристики трансфера                 : BT.709
Коэффициенты матрицы                     : BT.709

Аудио #1
Идентификатор                            : 2
Формат                                   : AC-3
Формат/Информация                        : Audio Coding 3
Идентификатор кодека                     : A_AC3
Продолжительность                        : 54 м. 19 с.
Вид битрейта                             : Постоянный
Битрейт                                  : 384 Кбит/сек
Каналы                                   : 6 каналов
Расположение каналов                     : Front: L C R, Side: L R, LFE
Частота                                  : 48,0 КГц
Частота кадров                           : 31,250 кадров/сек (1536 SPF)
Битовая глубина                          : 16 бит
Метод сжатия                             : С потерями
Размер потока                            : 149 Мбайт (12%)
Заголовок                                : Jaskier
Язык                                     : Russian
ServiceKind/String                       : Complete Main
Default                                  : Да
Forced                                   : Нет

Аудио #2
Идентификатор                            : 3
Формат                                   : AC-3
Формат/Информация                        : Audio Coding 3
Идентификатор кодека                     : A_AC3
Продолжительность                        : 54 м. 19 с.
Вид битрейта                             : Постоянный
Битрейт                                  : 640 Кбит/сек
Каналы                                   : 6 каналов
Расположение каналов                     : Front: L C R, Side: L R, LFE
Частота                                  : 48,0 КГц
Частота кадров                           : 31,250 кадров/сек (1536 SPF)
Битовая глубина                          : 16 бит
Метод сжатия                             : С потерями
Размер потока                            : 249 Мбайт (20%)
Заголовок                                : eng
Язык                                     : English
ServiceKind/String                       : Complete Main
Default                                  : Нет
Forced                                   : Нет


Трекер:  [ 11-Фев-2018 18:24 ]

  

Скачать .torrent

Размер .torrent файла 100 KB


Размер: 19.87 GB
Хэш (hash) релиза: 7499a9c18ce6fdd3e7e200d2bb28b7e83402cb9b
Подписка на обновления:

Торренты, похожие на Чужестранка Outlander скачать торрент

Форум Название Автор Размер S L Добавлен
Зарубежные сериалы ·· Чужестранка / Outlander / Сезон: 3 / Серии: 1-13 из 13 (Джон Дал, Анна Ферстер, Брайан Келли, Метин Хусейн, Фил Джон, Майк Баркер, Ричард Кларк) [2017, США, Фантастика, драма, мелодрама, экранизация, WEBRip] MVO (Jaskier) + Original Galfimbul 98825666569.2 GB 0 0 1518361463

18:04

11-Фев-18

Зарубежные сериалы ·· Чужестранка / Outlander / Сезон: 3 / Серии: 1-13 из 13 (Анна Ферстер, Брайан Келли, Ричард Кларк, Джон Дал) [2017, США, фантастика, драма, мелодрама, WEBRip] MVO (Baibako) + Original Galfimbul 97270743049.06 GB 0 0 1510063471

17:04

7-Ноя-17

Зарубежные сериалы ·· Чужестранка / Outlander / Сезон: 2 / Серии: 1-3 из 13 (Брайан Келли, Анна Ферстер / Brian Kelly, Anna Foerster) [2016, фантастика, драма, мелодрама, WEB-DL 720p] MVO (NewStudio, Baibako, FocusStudio) + Original + Subs (Rus, Eng) Galfimbul 81625919557.6 GB 0 0 1462213085

21:18

2-Май-16

Зарубежные сериалы ·· Чужестранка / Outlander / Сезон: 2 / Серии: 1-3 из 13 (Анна Ферстер, Брайан Келли, Ричард Кларк) [2016, фантастика, драма, мелодрама, WEB-DLRip] MVO (NewStudio) + Original + Subs (Rus, Eng) Galfimbul 22025224762.05 GB 0 0 1461831692

11:21

28-Апр-16

Зарубежные сериалы ·· Чужестранка / Outlander / Сезон: 2 / Серии: 1-3 из 13 (Брайан Келли, Анна Ферстер / Brian Kelly, Anna Foerster) [2016, фантастика, драма, мелодрама, WEBRip] MVO (BaibaKo) + Original Galfimbul 23636263452.2 GB 0 0 1461601496

19:24

25-Апр-16

Зарубежные сериалы ·· Чужестранка / Outlander / Сезон: 2 / Серии: 1-3 из 13 (Брайан Келли, Анна Ферстер / Brian Kelly, Anna Foerster) [2016, фантастика, драма, мелодрама, WEBRip 720p] MVO (BaibaKo) + Original Galfimbul 62006381755.77 GB 0 0 1461599682

18:54

25-Апр-16

Зарубежные сериалы ·· Чужестранка / Outlander / Сезон: 3 / Серии: 1 из 13 (Брайан Келли, Анна Ферстер / Brian Kelly, Anna Foerster) [2017, США, фантастика, драма, мелодрама, WEB-DL 720p] MVO (NewStudio, BaibaKo) + Original + Subs (Rus, Eng) Galfimbul 19538332381.82 GB 0 0 1505204671

11:24

12-Сен-17

Зарубежные сериалы ·· Чужестранка / Outlander / Сезон: 3 / Серии: 1 из 13 (Брайан Келли, Анна Ферстер / Brian Kelly, Anna Foerster) [2016, США, фантастика, драма, мелодрама, WEB-DL 1080p] MVO (NewStudio, BaibaKo) + Original + Subs (Rus, Eng) Galfimbul 33784593533.15 GB 0 0 1505199278

09:54

12-Сен-17

Зарубежные сериалы ·· Чужестранка / Outlander / Сезон: 3 / Серии: 1 из 13 (Анна Ферстер, Брайан Келли, Ричард Кларк, Джон Дал) [2017, США, фантастика, драма, мелодрама, WEBRip] MVO (Baibako) + Original Galfimbul 682016768650 MB 0 0 1505141657

17:54

11-Сен-17

Еще никто не оставлял запись к записи скачать торрент Чужестранка Outlander . Будь первым!

!Обратная связь