SmartFTP Enterprise 9.0.2556.0 Multilingual | Stumbleupon | Legendary Di Ren Jie

Скачать через торрент Чужестранка Outlander Фильм бесплатно в хорошем качестве torrent

Скачивайте на UnionPeer.org фильмы через торрент без регистрации. Новинки кино в хорошем качестве через торрент. На UnionPeer.org можно скачать через торрент фильмы 2014 и 2015 годов. Самые новые фильмы.

Скачать торрент Чужестранка Outlander бесплатно через .torrent фильм мультфильм сериал

Если у вас наблюдаются проблемы со скриншотами, переходом по ссылками, скачиванием торрентов - проблемы в блокировщике рекламы AdBlock. #хорошегоДня!


Статистика раздачи
Размер:  9.2 GB   |    Зарегистрирован:  6 дней   |    .torrent скачан:  19 раз   |   
Раздают:  1  
   
Загрузка...
 
Автор Сообщение

Galfimbul

avatar Galfimbul


Чужестранка | Outlander

Год выпуска: 2017
Страна: США, Left Bank Productions, Sony Pictures Television
Жанр: Фантастика, драма, мелодрама, экранизация
Продолжительность: ~ 00:45:00
Перевод: Профессиональный (многоголосый закадровый) | Jaskier
Режиссёр: Джон Дал, Анна Ферстер, Брайан Келли, Метин Хусейн, Фил Джон, Майк Баркер, Ричард Кларк
В ролях: Катрина Балф, Сэм Юэн, Тобайас Мензис, Грэм МакТавиш, Дункан Лакруа, Грант О`Рурк, Стивен Уолтерс, Джеймс Флит, Трэйси Уилкинсон, Финн Ден Хертог, Билл Патерсон, Нелл Хадсон, Гари Льюис, Лотте Вербеек, Аннет Бэдленд, Лора Доннелли, Стивен Кри, Джон Хеффернан, Прентис Хэнкок, Дуглас Расселл, Тим МакИннерни, Джон Сешнс, Саймон Кэллоу
Описание: Клэр, работавшая медсестрой во время Второй мировой войны, случайно перемещается во времени и попадает в 1743 год. В этом мире, полном приключений, она знакомится с шотландским рыцарем Джейми. У героев завязывается страстный роман, несмотря на то, что сердце Клэр разрывается между двумя мужчинами — Джейми и ее мужем Фрэнком, который остался в другом времени.


Качество: WEBRip
Формат: AVI
Видео: XviD, ~ 1500 kbps, 720x400 (16:9), 23.976 fps
Аудио 1: MP3, 48,0 КГц, 2 ch, 128 kbps - Rus
Аудио 2: MP3, 48,0 КГц, 2 ch, 128 kbps - Eng
Субтитры: отсутствуют
Реклама: Присутствует звуковая (два раза в начале и конце по 10 сек.)
Ссылка на предыдущие и альтернативные раздачи
Переведено и озвучено: студией Jaskier
Общее
Полное имя                               : F:\Jaskier\Outlander Season 3 (WEBRip l 400p l Jaskier)\Outlander.S03E01.WEBRip.Jaskier.avi
Формат                                   : AVI
Формат/Информация                        : Audio Video Interleave
Размер файла                             : 686 Мбайт
Продолжительность                        : 54 м. 19 с.
Общий поток                              : 1766 Кбит/сек
Название фильма                          : Outlander.S03E01.WEB-DLRip.Rus.Eng.DV.NewStudio / NNM-Club
Программа кодирования                    : VirtualDubMod 1.5.10.3 | www.virtualdub-fr.org || (build 2550/release)
Библиотека кодирования                   : VirtualDubMod build 2550/release

Видео
Идентификатор                            : 0
Формат                                   : MPEG-4 Visual
Профиль формата                          : Advanced [email protected]
Настройки формата                        : BVOP2
Параметр BVOP формата                    : 2
Параметр QPel формата                    : Нет
Параметр GMC формата                     : Без точки перехода
Параметр матрицы формата                 : Default (H.263)
Идентификатор кодека                     : XVID
Идентификатор кодека/Подсказка           : XviD
Продолжительность                        : 54 м. 19 с.
Битрейт                                  : 1496 Кбит/сек
Ширина                                   : 720 пикселей
Высота                                   : 400 пикселей
Соотношение сторон                       : 16:9
Частота кадров                           : 23,976 (24000/1001) кадра/сек
Цветовое пространство                    : YUV
Субдискретизация насыщенности            : 4:2:0
Битовая глубина                          : 8 бит
Тип развёртки                            : Прогрессивная
Метод сжатия                             : С потерями
Бит/(Пиксели*Кадры)                      : 0.217
Размер потока                            : 581 Мбайт (85%)
Библиотека кодирования                   : XviD 67

Аудио #1
Идентификатор                            : 1
Формат                                   : MPEG Audio
Версия формата                           : Version 1
Профиль формата                          : Layer 3
Настройки формата                        : Joint stereo / MS Stereo
Идентификатор кодека                     : 55
Идентификатор кодека/Подсказка           : MP3
Продолжительность                        : 54 м. 19 с.
Вид битрейта                             : Постоянный
Битрейт                                  : 128 Кбит/сек
Каналы                                   : 2 канала
Частота                                  : 48,0 КГц
Частота кадров                           : 41,667 кадра/сек (1152 SPF)
Метод сжатия                             : С потерями
Размер потока                            : 49,7 Мбайт (7%)
Выравнивание                             : Соединение по промежуткам
Продолжительность промежутка             : 42  мс. (1,00 видеокадр)
Время предзагрузки промежутка            : 504  мс.
Библиотека кодирования                   : LAME3.100
Настройки программы                      : -m j -V 4 -q 3 -lowpass 17 -b 128

Аудио #2
Идентификатор                            : 2
Формат                                   : MPEG Audio
Версия формата                           : Version 1
Профиль формата                          : Layer 3
Настройки формата                        : Joint stereo / MS Stereo
Идентификатор кодека                     : 55
Идентификатор кодека/Подсказка           : MP3
Продолжительность                        : 54 м. 19 с.
Вид битрейта                             : Постоянный
Битрейт                                  : 128 Кбит/сек
Каналы                                   : 2 канала
Частота                                  : 48,0 КГц
Метод сжатия                             : С потерями
Размер потока                            : 49,7 Мбайт (7%)
Выравнивание                             : Соединение по промежуткам
Продолжительность промежутка             : 42  мс. (1,00 видеокадр)
Время предзагрузки промежутка            : 504  мс.


Трекер:  [ 11-Фев-2018 17:48 ]

  

Скачать .torrent

Размер .torrent файла 47 KB


Размер: 9.2 GB
Хэш (hash) релиза: 5b05577f1dd5ec1d348e42e02c65175af8121a37
Подписка на обновления:

Торренты, похожие на Чужестранка Outlander скачать торрент

Форум Название Автор Размер S L Добавлен
Зарубежные сериалы ·· Чужестранка / Outlander / Сезон: 3 / Серии: 1-13 из 13 (Джон Дал, Анна Ферстер, Брайан Келли, Метин Хусейн, Фил Джон, Майк Баркер, Ричард Кларк) [2017, США, Фантастика, драма, мелодрама, экранизация, WEBRip 720p] MVO (Jaskier) + Original Galfimbul 2133119019619.87 GB 0 0 1518362715

18:25

11-Фев-18

Зарубежные сериалы ·· Чужестранка / Outlander / Сезон: 3 / Серии: 1-13 из 13 (Анна Ферстер, Брайан Келли, Ричард Кларк, Джон Дал) [2017, США, фантастика, драма, мелодрама, WEBRip] MVO (Baibako) + Original Galfimbul 97270743049.06 GB 0 0 1510063471

17:04

7-Ноя-17

Зарубежные сериалы ·· Чужестранка / Outlander / Сезон: 2 / Серии: 1-3 из 13 (Брайан Келли, Анна Ферстер / Brian Kelly, Anna Foerster) [2016, фантастика, драма, мелодрама, WEB-DL 720p] MVO (NewStudio, Baibako, FocusStudio) + Original + Subs (Rus, Eng) Galfimbul 81625919557.6 GB 0 0 1462213085

21:18

2-Май-16

Зарубежные сериалы ·· Чужестранка / Outlander / Сезон: 2 / Серии: 1-3 из 13 (Анна Ферстер, Брайан Келли, Ричард Кларк) [2016, фантастика, драма, мелодрама, WEB-DLRip] MVO (NewStudio) + Original + Subs (Rus, Eng) Galfimbul 22025224762.05 GB 0 0 1461831692

11:21

28-Апр-16

Зарубежные сериалы ·· Чужестранка / Outlander / Сезон: 2 / Серии: 1-3 из 13 (Брайан Келли, Анна Ферстер / Brian Kelly, Anna Foerster) [2016, фантастика, драма, мелодрама, WEBRip] MVO (BaibaKo) + Original Galfimbul 23636263452.2 GB 0 0 1461601496

19:24

25-Апр-16

Зарубежные сериалы ·· Чужестранка / Outlander / Сезон: 2 / Серии: 1-3 из 13 (Брайан Келли, Анна Ферстер / Brian Kelly, Anna Foerster) [2016, фантастика, драма, мелодрама, WEBRip 720p] MVO (BaibaKo) + Original Galfimbul 62006381755.77 GB 0 0 1461599682

18:54

25-Апр-16

Зарубежные сериалы ·· Чужестранка / Outlander / Сезон: 3 / Серии: 1 из 13 (Брайан Келли, Анна Ферстер / Brian Kelly, Anna Foerster) [2017, США, фантастика, драма, мелодрама, WEB-DL 720p] MVO (NewStudio, BaibaKo) + Original + Subs (Rus, Eng) Galfimbul 19538332381.82 GB 0 0 1505204671

11:24

12-Сен-17

Зарубежные сериалы ·· Чужестранка / Outlander / Сезон: 3 / Серии: 1 из 13 (Брайан Келли, Анна Ферстер / Brian Kelly, Anna Foerster) [2016, США, фантастика, драма, мелодрама, WEB-DL 1080p] MVO (NewStudio, BaibaKo) + Original + Subs (Rus, Eng) Galfimbul 33784593533.15 GB 0 0 1505199278

09:54

12-Сен-17

Зарубежные сериалы ·· Чужестранка / Outlander / Сезон: 3 / Серии: 1 из 13 (Анна Ферстер, Брайан Келли, Ричард Кларк, Джон Дал) [2017, США, фантастика, драма, мелодрама, WEBRip] MVO (Baibako) + Original Galfimbul 682016768650 MB 0 0 1505141657

17:54

11-Сен-17

Еще никто не оставлял запись к записи скачать торрент Чужестранка Outlander . Будь первым!

!Обратная связь