Sara Wilson | Lobotomy Corporation [Early Access] (2016) PC | RePack | IMDb: 7 HD One Winter Weekend

Скачать через торрент Мать за сына Серии: 1-4 из 4 Фильм бесплатно в хорошем качестве torrent

Скачивайте на UnionPeer.org фильмы через торрент без регистрации. Новинки кино в хорошем качестве через торрент. На UnionPeer.org можно скачать через торрент фильмы 2014 и 2015 годов. Самые новые фильмы.

Скачать торрент Мать за сына Серии: 1-4 из 4 бесплатно через .torrent фильм мультфильм сериал

Если у вас наблюдаются проблемы со скриншотами, переходом по ссылками, скачиванием торрентов - проблемы в блокировщике рекламы AdBlock. #хорошегоДня!


Статистика раздачи
Размер:  4.71 GB   |    Зарегистрирован:  6 дней   |    .torrent скачан:  30 раз   |   
Раздают:  1  
   
Загрузка...
 
Автор Сообщение

Galfimbul

avatar Galfimbul


Мать за сына

Год выпуска: 2017
Производство: Паламеда продакшн
Жанр: мелодрама
Продолжительность: ~00:45:00 серия
Субтитры: нет

Режиссёр: Петр Степин

В ролях: Дарья Повереннова, Дмитрий Егоров , Алексей Фатеев, Анастасия Седлецкая, Святослав Астрамович, Елизавета Шукова

Описание: Ирина всю жизнь посвятила сыну Кириллу . Из-за него она даже откладывает свадьбу с любимым мужчиной . Кирилл же тем временем прожигает жизнь со своими друзьями-мажорами. В один из дней они пьяными садятся за руль и сбивают на переходе девушку Алену . И хотя за рулем сидел Андрей, сын судьи, чтобы избежать наказания, друзья обвиняют в аварии Кирилла. Ирина вынуждена идти к отцу Алены и просить его поверить в невиновность сына.

Реклама: Нет.

Все раздачи сериала
Sample

Качество: HDTVRip 720p - Nikolspup
Формат: MKV
Видео кодек: H.264
Аудио кодек: AC3
Видео: MPEG4 AVC Video, H264, 16:9, 1280x720, 25 fps, ~3500 kbps, 0.152 bit/pixel
Аудио: AC3 Dolby Digital, 48 kHz, 2/0 (L,R) ch, 192 kbps
General
Unique ID : 208840757960614803913761213030800024871 (0x9D1D4455F31BF1B6801FEB6E9CBFE527)
Complete name : D:\Mat.za.syna.2017.HDTVRip.(720p).Nikolspup\Mat.za.syna.(01.seriya.iz.02).2017.HDTVRip.(720p).Nikolspup.mkv
Format : Matroska
Format version : Version 4 / Version 2
File size : 2.33 GiB
Duration : 1h 30mn
Overall bit rate : 3 694 Kbps
Encoded date : UTC 2018-02-11 05:41:36
Writing application : mkvmerge v7.8.0 ('River Man') 32bit built on Apr 3 2015 12:11:22
Writing library : libebml v1.3.1 + libmatroska v1.4.2
DURATION : 01:30:12.800000000
NUMBER_OF_FRAMES : 169150
NUMBER_OF_BYTES : 129907200
_STATISTICS_WRITING_APP : mkvmerge v7.8.0 ('River Man') 32bit built on Apr 3 2015 12:11:22
_STATISTICS_WRITING_DATE_UTC : 2018-02-11 05:41:36
_STATISTICS_TAGS : BPS DURATION NUMBER_OF_FRAMES NUMBER_OF_BYTES

Video
ID : 1
Format : AVC
Format/Info : Advanced Video Codec
Format profile : [email protected]
Format settings, CABAC : Yes
Format settings, ReFrames : 9 frames
Codec ID : V_MPEG4/ISO/AVC
Duration : 1h 30mn
Bit rate : 3 500 Kbps
Width : 1 280 pixels
Height : 720 pixels
Display aspect ratio : 16:9
Frame rate mode : Constant
Frame rate : 25.000 fps
Color space : YUV
Chroma subsampling : 4:2:0
Bit depth : 8 bits
Scan type : Progressive
Bits/(Pixel*Frame) : 0.152
Stream size : 2.16 GiB (93%)
Writing library : x264 core 146 r2538 121396c
Encoding settings : cabac=1 / ref=9 / deblock=1:-3:-3 / analyse=0x3:0x113 / me=umh / subme=11 / psy=1 / psy_rd=1.00:0.20 / mixed_ref=1 / me_range=32 / chroma_me=1 / trellis=2 / 8x8dct=1 / cqm=0 / deadzone=21,11 / fast_pskip=1 / chroma_qp_offset=-3 / threads=6 / lookahead_threads=1 / sliced_threads=0 / nr=0 / decimate=0 / interlaced=0 / bluray_compat=0 / constrained_intra=0 / bframes=11 / b_pyramid=2 / b_adapt=2 / b_bias=0 / direct=3 / weightb=1 / open_gop=0 / weightp=2 / keyint=250 / keyint_min=25 / scenecut=40 / intra_refresh=0 / rc_lookahead=60 / rc=2pass / mbtree=1 / bitrate=3500 / ratetol=1.0 / qcomp=0.60 / qpmin=0 / qpmax=69 / qpstep=4 / cplxblur=20.0 / qblur=0.5 / vbv_maxrate=14000 / vbv_bufsize=14000 / nal_hrd=none / filler=0 / ip_ratio=1.40 / aq=3:1.00
Default : No
Forced : No
DURATION : 01:30:12.800000000
NUMBER_OF_FRAMES : 135320
NUMBER_OF_BYTES : 2368239571
_STATISTICS_WRITING_APP : mkvmerge v7.8.0 ('River Man') 32bit built on Apr 3 2015 12:11:22
_STATISTICS_WRITING_DATE_UTC : 2018-02-11 05:41:36
_STATISTICS_TAGS : BPS DURATION NUMBER_OF_FRAMES NUMBER_OF_BYTES
Color primaries : BT.709
Transfer characteristics : BT.709
Matrix coefficients : BT.709

Audio
ID : 2
Format : AC-3
Format/Info : Audio Coding 3
Mode extension : CM (complete main)
Format settings, Endianness : Big
Codec ID : A_AC3
Duration : 1h 30mn
Bit rate mode : Constant
Bit rate : 192 Kbps
Channel count : 2 channels
Channel positions : Front: L R
Sampling rate : 48.0 KHz
Bit depth : 16 bits
Compression mode : Lossy
Stream size : 124 MiB (5%)
Language : Russian
Default : Yes
Forced : Yes


Трекер:  [ 11-Фев-2018 17:18 ]

  

Скачать .torrent

Размер .torrent файла 24 KB


Размер: 4.71 GB
Хэш (hash) релиза: a342bc4503bbb77632fe89e66d17a5362ef01125
Подписка на обновления:

Торренты, похожие на Мать за сына Серии: 1-4 из 4 скачать торрент

Форум Название Автор Размер S L Добавлен
Российские сериалы ·· Мать за сына / Серии: 1-4 из 4 (Петр Степин) [2017, мелодрама, WEBRip] Galfimbul 29388840962.74 GB 2 1 1518359207

17:26

11-Фев-18

Российские сериалы ·· Мать за сына / Серии: 1-4 из 4 (Петр Степин) [2017, мелодрама, SATRip-AVC] aleksan55 23399052242.18 GB 0 0 1518293968

23:19

10-Фев-18

Еще никто не оставлял запись к записи скачать торрент Мать за сына Серии: 1-4 из 4 . Будь первым!

!Обратная связь