↳ Aplikace | Comments: 0 | Comenta las últimas películas que viste #362

Скачать через торрент Мать за сына Серии: 1-4 из 4 Фильм бесплатно в хорошем качестве torrent

Скачивайте на UnionPeer.org фильмы через торрент без регистрации. Новинки кино в хорошем качестве через торрент. На UnionPeer.org можно скачать через торрент фильмы 2014 и 2015 годов. Самые новые фильмы.

Скачать торрент Мать за сына Серии: 1-4 из 4 бесплатно через .torrent фильм мультфильм сериал

Статистика раздачи
Размер:  2.74 GB   |    Зарегистрирован:  6 месяцев   |    .torrent скачан:  56 раз   |   
Раздают:  1  
   
загрузка...
 
Автор Сообщение

Galfimbul

avatar Galfimbul


Мать за сына

Год выпуска: 2017
Производство: Паламеда продакшн
Жанр: мелодрама
Продолжительность: ~00:45:00 серия
Субтитры: нет

Режиссёр: Петр Степин

В ролях: Дарья Повереннова, Дмитрий Егоров , Алексей Фатеев, Анастасия Седлецкая, Святослав Астрамович, Елизавета Шукова

Описание: Ирина всю жизнь посвятила сыну Кириллу . Из-за него она даже откладывает свадьбу с любимым мужчиной . Кирилл же тем временем прожигает жизнь со своими друзьями-мажорами. В один из дней они пьяными садятся за руль и сбивают на переходе девушку Алену . И хотя за рулем сидел Андрей, сын судьи, чтобы избежать наказания, друзья обвиняют в аварии Кирилла. Ирина вынуждена идти к отцу Алены и просить его поверить в невиновность сына.

Реклама: Нет.

Все раздачи сериала
Sample

Качество: WEBRip - Files-x
Формат: AVI
Видео кодек: XviD
Аудио кодек: AC3
Видео: 720x400 (1.80:1), 25 fps, XviD build 73 ~1970 kbps avg, 0.274 bit/pixel
Аудио: 48.0 kHz, AC3 Dolby Digital, 2/0 (L,R) ch, ~ 192 kbps
General
Complete name : D:\Мать за сына.2017.WEB-DLRip.Files-x\01.Мать за сына.2017.WEB-DLRip.Files-x.avi
Format : AVI
Format/Info : Audio Video Interleave
File size : 1.37 GiB
Duration : 1h 30mn
Overall bit rate : 2 173 Kbps
Writing application : VirtualDubMod 1.5.10.3 | www.virtualdub-fr.org || (build 2550/release)
Writing library : VirtualDubMod build 2550/release

Video
ID : 0
Format : MPEG-4 Visual
Format profile : Advanced [email protected]
Format settings, BVOP : 1
Format settings, QPel : No
Format settings, GMC : No warppoints
Format settings, Matrix : Custom
Codec ID : XVID
Codec ID/Hint : XviD
Duration : 1h 30mn
Bit rate : 1 972 Kbps
Width : 720 pixels
Height : 400 pixels
Display aspect ratio : 16:9
Frame rate : 25.000 fps
Color space : YUV
Chroma subsampling : 4:2:0
Bit depth : 8 bits
Scan type : Progressive
Compression mode : Lossy
Bits/(Pixel*Frame) : 0.274
Stream size : 1.24 GiB (91%)
Writing library : XviD 73

Audio
ID : 1
Format : AC-3
Format/Info : Audio Coding 3
Mode extension : CM (complete main)
Format settings, Endianness : Big
Codec ID : 2000
Duration : 1h 30mn
Bit rate mode : Constant
Bit rate : 192 Kbps
Channel count : 2 channels
Channel positions : Front: L R
Sampling rate : 48.0 KHz
Bit depth : 16 bits
Compression mode : Lossy
Stream size : 124 MiB (9%)
Alignment : Split accross interleaves
Interleave, duration : 40 ms (1.00 video frame)
Interleave, preload duration : 500 ms


Трекер:  [ 11-Фев-2018 17:18 ]

  

Скачать .torrent

Размер .torrent файла 14 KB


Размер: 2.74 GB
Хэш (hash) релиза: 983934a5bde465a9e4c6a3753a003473c2c9049c
Подписка на обновления:

Торренты, похожие на Мать за сына Серии: 1-4 из 4 скачать торрент

Форум Название Автор Размер S L Добавлен
Российские сериалы ·· Мать за сына / Серии: 1-4 из 4 (Петр Степин) [2017, мелодрама, HDTVRip 720p] Galfimbul 50610304434.71 GB 0 0 1518359225

17:27

11-Фев-18

Российские сериалы ·· Мать за сына / Серии: 1-4 из 4 (Петр Степин) [2017, мелодрама, SATRip-AVC] aleksan55 23399052242.18 GB 0 0 1518293968

23:19

10-Фев-18

Еще никто не оставлял запись к записи скачать торрент Мать за сына Серии: 1-4 из 4 . Будь первым!

!Обратная связь