Kayvan Novak | Eps20 Nine: Nine Time Travels | Rob Delaney

Скачать через торрент Щурящиеся Squinters Фильм бесплатно в хорошем качестве torrent

Скачивайте на UnionPeer.org фильмы через торрент без регистрации. Новинки кино в хорошем качестве через торрент. На UnionPeer.org можно скачать через торрент фильмы 2014 и 2015 годов. Самые новые фильмы.

Скачать торрент Щурящиеся Squinters бесплатно через .torrent фильм мультфильм сериал

Статистика раздачи
Размер:  245 MB   |    Зарегистрирован:  3 месяца 14 дней   |    .torrent скачан:  16 раз   |   
Раздают:  1  
   
загрузка...
 
Автор Сообщение

Galfimbul

avatar Galfimbul


Щурящиеся / Squinters

Год выпуска: 2018
Страна: Австралия
Жанр: комедия
Продолжительность: 00:23:00

Перевод: Субтитры Ron.Studio™

Режиссёр: Трент О'Доннел, Адам Цар

В ролях: Тим Минчин, Андреа Деметриадес, Сэм Симмонс, Джастин Росняк, Ниаша Хатенди, Стин Раскополус, Мэнди МакЭлхинни и др.

Описание: Щурящиеся - люди, которые ездят на работу рано утром, а возвращаются поздно вечером, щурясь в окно машины на восходящее и заходящее солнце.

Сэмпл: http://multi-up.com/1186781

Качество: TVRip
Формат: MP4
Видео: AVC, 1024х576, 25 fps, 1460 kbps, 0.090 bit/pixel
Аудио: AAC, 44.1 kHz, 2 ch, 128 kbps
Субтитры: Внешние *.srt

Реклама: Отсутствует
General
Complete name : С:\squinters.au.s01e01.mp4
Format : MPEG-4
Format profile : Base Media
Codec ID : isom
File size : 245 MiB
Duration : 23mn 20s
Overall bit rate mode : Variable
Overall bit rate : 1 465 Kbps
Writing application : Lavf54.59.106

Video
ID : 1
Format : AVC
Format/Info : Advanced Video Codec
Format profile : [email protected]
Format settings, CABAC : Yes
Format settings, ReFrames : 4 frames
Codec ID : avc1
Codec ID/Info : Advanced Video Coding
Duration : 23mn 20s
Bit rate : 1 330 Kbps
Width : 1 024 pixels
Height : 576 pixels
Display aspect ratio : 16:9
Frame rate mode : Constant
Frame rate : 25.000 fps
Color space : YUV
Chroma subsampling : 4:2:0
Bit depth : 8 bits
Scan type : Progressive
Bits/(Pixel*Frame) : 0.090
Stream size : 222 MiB (91%)
Writing library : x264 core 148 r2643 5c65704
Encoding settings : cabac=1 / ref=3 / deblock=1:0:0 / analyse=0x3:0x113 / me=hex / subme=7 / psy=1 / psy_rd=1.00:0.00 / mixed_ref=1 / me_range=16 / chroma_me=1 / trellis=1 / 8x8dct=1 / cqm=0 / deadzone=21,11 / fast_pskip=1 / chroma_qp_offset=-2 / threads=6 / lookahead_threads=1 / sliced_threads=0 / nr=0 / decimate=1 / interlaced=0 / bluray_compat=0 / constrained_intra=0 / bframes=3 / b_pyramid=2 / b_adapt=1 / b_bias=0 / direct=1 / weightb=1 / open_gop=0 / weightp=2 / keyint=250 / keyint_min=25 / scenecut=40 / intra_refresh=0 / rc_lookahead=40 / rc=crf / mbtree=1 / crf=22.0 / qcomp=0.60 / qpmin=0 / qpmax=69 / qpstep=4 / vbv_maxrate=1404 / vbv_bufsize=3000 / crf_max=0.0 / nal_hrd=none / filler=0 / ip_ratio=1.40 / aq=1:1.00

Audio
ID : 2
Format : AAC
Format/Info : Advanced Audio Codec
Format profile : LC
Codec ID : 40
Duration : 23mn 20s
Bit rate mode : Variable
Bit rate : 128 Kbps
Maximum bit rate : 131 Kbps
Channel(s) : 2 channels
Channel positions : Front: L R
Sampling rate : 44.1 KHz
Compression mode : Lossy
Stream size : 21.4 MiB (9%)
Предыдущие и альтернативные раздачи

Трекер:  [ 11-Фев-2018 15:48 ]

  

Скачать .torrent

Размер .torrent файла 19 KB


Размер: 245 MB
Хэш (hash) релиза: 0fd0a1f12fbf2d28fb310788ce8e2f7184cd92e0
Подписка на обновления:

Еще никто не оставлял запись к записи скачать торрент Щурящиеся Squinters . Будь первым!

!Обратная связь