Minae Noji
Abby Elliott

Скачать через торрент Я рядом Сезон: 1 Фильм бесплатно в хорошем качестве torrent

Скачивайте на UnionPeer.org фильмы через торрент без регистрации. Новинки кино в хорошем качестве через торрент. На UnionPeer.org можно скачать через торрент фильмы 2014 и 2015 годов. Самые новые фильмы.

Скачать торрент Я рядом Сезон: 1 бесплатно через .torrent фильм мультфильм сериал

Если у вас наблюдаются проблемы со скриншотами, переходом по ссылками, скачиванием торрентов - проблемы в блокировщике рекламы AdBlock. #хорошегоДня!


Статистика раздачи
Размер:  2.62 GB   |    Зарегистрирован:  11 дней   |    .torrent скачан:  40 раз   |   
Раздают:  1  
   
Загрузка...
 
Автор Сообщение

Galfimbul

avatar Galfimbul


Я рядом
Год выпуска: 2013
Производство: «Star Media»
Жанр: Мелодрама
Продолжительность: ~ 45 мин.
Субтитры: Отсутствуют
Режиссер: Владимир Янощук
В ролях: Ольга Арнтгольц, Александр Новин, Алина Сергеева, Павел Баршак, Ада Роговцева, Виталий Линецкий, Ирина Мельник, Наталия Васько, Роман Македонский, София Стеценко, Ева Вакуленко, Ольга Лукьяненко, Яна Ковалёва, Никита Брусницын и др.
Описание: Бабка Серафима считалась в деревне ведьмой. Говорили, что она даже ночует в гробу. Соседский мальчишка Сашка решился проверить слухи. Визит окончился больницей: по стечению обстоятельств, в тот же вечер к бабке наведались воры, а мальчик их спугнул. Серафима пришла в больницу поблагодарить Сашку. Они подружились. Оказалось, что у бабки имеется весьма странный "клад": сорок пять коробочек с кольцами, на каждой написан год, начиная с 1941-го… Сашка не случайно оказался в доме Серафимы. Трагедия его семьи была тесно связана с судьбой старухи.
Релиз группы
Семпл
Кино-Театр
Качество: HDTVRip
Формат: AVI
Видео кодек: XviD
Аудио кодек: MP3
Видео: 720x400 (1.80:1), 25 fps, XviD build 73 ~1899 kbps avg, 0.26 bit/pixel
Аудио: 48 kHz, MPEG Layer 3, 2 ch, ~192.00 kbps avg
Общее
Идентификатор                            : 1 (0x1)
Полное имя                               : D:\Торрент\После\Ya.ryadom.2013.HDTV.1080i\Ya.ryadom.01.2013.HDTV.1080i.ts
Формат                                   : MPEG-TS
Размер файла                             : 2,49 Гбайт
Продолжительность                        : 41 м. 59 с.
Режим общего битрейта                    : Переменный
Общий поток                              : 8502 Кбит/сек

Видео
Идентификатор                            : 2911 (0xB5F)
Идентификатор меню                       : 1009 (0x3F1)
Формат                                   : AVC
Формат/Информация                        : Advanced Video Codec
Профиль формата                          : [email protected]
Настройки формата                        : CABAC / 4 Ref Frames
Параметр CABAC формата                   : Да
Параметр RefFrames формата               : 4 кадра
Идентификатор кодека                     : 27
Продолжительность                        : 41 м. 59 с.
Битрейт                                  : 7888 Кбит/сек
Ширина                                   : 1920 пикселей
Высота                                   : 1080 пикселей
Соотношение сторон                       : 16:9
Частота кадров                           : 25,000 кадров/сек
Цветовое пространство                    : YUV
Субдискретизация насыщенности            : 4:2:0
Битовая глубина                          : 8 бит
Тип развёртки                            : MBAFF
Метод сохранения типа развёртки          : Чередующиеся поля
Порядок развёртки                        : Верхнее поле первое
Бит/(Пиксели*Кадры)                      : 0.152
Размер потока                            : 2,31 Гбайт (93%)

Аудио
Идентификатор                            : 2912 (0xB60)
Идентификатор меню                       : 1009 (0x3F1)
Формат                                   : MPEG Audio
Версия формата                           : Version 1
Профиль формата                          : Layer 2
Настройки формата                        : Joint stereo / Intensity Stereo + MS Stereo
Идентификатор кодека                     : 3
Продолжительность                        : 41 м. 59 с.
Вид битрейта                             : Постоянный
Битрейт                                  : 192 Кбит/сек
Каналы                                   : 2 канала
Частота                                  : 48,0 КГц
Частота кадров                           : 41,667 кадра/сек (1152 SPF)
Метод сжатия                             : С потерями
Размер потока                            : 57,7 Мбайт (2%)
Язык                                     : Russian
Общее
Полное имя                               : D:\Я рядом\Ya.ryadom.S01E01.2013.HDTVRip.RG.Russkie.serialy.avi
Формат                                   : AVI
Формат/Информация                        : Audio Video Interleave
Размер файла                             : 631 Мбайт
Продолжительность                        : 41 м. 59 с.
Общий поток                              : 2102 Кбит/сек
Программа кодирования                    : VirtualDubMod 1.5.10.3 | www.virtualdub-fr.org || (build 2550/release)
Библиотека кодирования                   : VirtualDubMod build 2550/release

Видео
Идентификатор                            : 0
Формат                                   : MPEG-4 Visual
Профиль формата                          : Advanced [email protected]
Настройки формата                        : BVOP2 / Custom Matrix
Параметр BVOP формата                    : 2
Параметр QPel формата                    : Нет
Параметр GMC формата                     : Без точки перехода
Параметр матрицы формата                 : Выборочная
Идентификатор кодека                     : XVID
Идентификатор кодека/Подсказка           : XviD
Продолжительность                        : 41 м. 59 с.
Битрейт                                  : 1900 Кбит/сек
Ширина                                   : 720 пикселей
Высота                                   : 400 пикселей
Соотношение сторон                       : 16:9
Частота кадров                           : 25,000 кадров/сек
Цветовое пространство                    : YUV
Субдискретизация насыщенности            : 4:2:0
Битовая глубина                          : 8 бит
Тип развёртки                            : Прогрессивная
Метод сжатия                             : С потерями
Бит/(Пиксели*Кадры)                      : 0.264
Размер потока                            : 571 Мбайт (90%)
Библиотека кодирования                   : XviD 73

Аудио
Идентификатор                            : 1
Формат                                   : MPEG Audio
Версия формата                           : Version 1
Профиль формата                          : Layer 3
Идентификатор кодека                     : 55
Идентификатор кодека/Подсказка           : MP3
Продолжительность                        : 41 м. 59 с.
Вид битрейта                             : Постоянный
Битрейт                                  : 192 Кбит/сек
Каналы                                   : 2 канала
Частота                                  : 48,0 КГц
Частота кадров                           : 41,667 кадра/сек (1152 SPF)
Метод сжатия                             : С потерями
Размер потока                            : 57,7 Мбайт (9%)
Выравнивание                             : Соединение по промежуткам
Продолжительность промежутка             : 40  мс. (1,00 видеокадр)
Время предзагрузки промежутка            : 504  мс.
Библиотека кодирования                   : LAME3.99r
Настройки программы                      : -m s -V 4 -q 0 -lowpass 18.6 -b 192


Трекер:  [ 11-Фев-2018 15:48 ]

  

Скачать .torrent

Размер .torrent файла 14 KB


Размер: 2.62 GB
Хэш (hash) релиза: e694a751a7dc16f4a9a94d216f33a893c810eb7e
Подписка на обновления:

Еще никто не оставлял запись к записи скачать торрент Я рядом Сезон: 1 . Будь первым!

!Обратная связь