Adi Shankar | Sam Spruell | Valerie Koch

Accident Man torrent

, , - AdBlock. #!


3.76 GB   |    :  8    |    .torrent :  11    |   
1  
   
...
 

Galfimbul

avatar Galfimbul


/ Accident Man
-

6.140 / 10 / 10
: 2018
:
: , ,
: 01:45:29

: (Blu-ray EUR)
:
C: ,
:
: , Stu Small, Pat Mills
: , ,
: Duane McClunie
:
: , Ryan Kaercher,
:
: , , , , , , , , , Β

: 5 2018

: 05 2018, Sony Pictures Home Entertainment

: , . , .
: BDRemux (NNMClub)
: BDRip
: HD (720p)
: M4V
: H.264, 1280x544, 2.35:1, 3 500 Kbps, 23.976 (24000/1001) fps

1: / (Blu-ray EUR), AAC / 2.0 / 160 Kbps / 48.0 KHz
2: / , AAC / 2.0 / 160 Kbps / 48.0 KHz
3: / (Blu-ray EUR), AC-3 / 5.1 / 640 Kbps / 48.0 KHz
4: / , AC-3 / 5.1 / 640 Kbps / 48.0 KHz

1:
2:
Sort Name: Accident Man
XID: Apple:vendor_id:2017-1008357
contentID: 1332164973
Screenwriters: , Stu Small, Pat Mills
Producers: , ,
Director:
Cast: , , , , , , , , , Β
Studio: LINK Entertainment
Rating: 5
Long Description: , . , .
Description: , . , .
Release Date: 2018-02-06T08:00:00Z
Genre: Action & Adventure
Artist: Jesse V. Johnson
Name: Accident Man
General
Complete name : /Users/imac/HandBrake/Accident Man (720p HD).m4v
Format : MPEG-4
Codec ID : M4V (M4V /M4A /mp42/isom)
File size : 3.76 GiB
Duration : 1h 45mn
Overall bit rate mode : Variable
Overall bit rate : 5 105 Kbps
Movie name : Accident Man
Performer : Jesse V. Johnson
Director :
Actor : / / / / / / / / / Β
Screenplay by : / Stu Small / Pat Mills
Producer : / /
Production studio : LINK Entertainment
Genre : Action & Adventure
ContentType : Short Film
Description : , . , .
Recorded date : UTC 2018-02-06 08:00:00
Encoded date : UTC 2018-02-11 11:01:11
Tagged date : UTC 2018-02-11 11:02:50
Cover : Yes
Rating : None
Title/Sort : Accident Man
LongDescription : , . , .
HDVideo : Yes
AppleStoreCatalogID : 1332164973
Vendor : Apple:vendor_id:2017-1008357
ContentRating : mpaa|R|400|

Video #1
ID : 1
Format : AVC
Format/Info : Advanced Video Codec
Format profile : [email protected]
Format settings : 3 Ref Frames
Format settings, CABAC : No
Format settings, ReFrames : 3 frames
Codec ID : avc1
Codec ID/Info : Advanced Video Coding
Duration : 1h 45mn
Source duration : 1h 45mn
Bit rate : 3 500 Kbps
Width : 1 280 pixels
Height : 544 pixels
Display aspect ratio : 2.35:1
Frame rate mode : Variable
Frame rate : 23.976 (24000/1001) fps
Minimum frame rate : 23.974 fps
Maximum frame rate : 23.981 fps
Color space : YUV
Chroma subsampling : 4:2:0
Bit depth : 8 bits
Scan type : Progressive
Bits/(Pixel*Frame) : 0.210
Stream size : 2.58 GiB (69%)
Source stream size : 2.58 GiB (69%)
Title : Main Program
Writing library : x264 core 148 r2708 86b7198
Encoding settings : cabac=0 / ref=3 / deblock=1:-3:-3 / analyse=0x3:0x113 / me=umh / subme=9 / psy=1 / psy_rd=1.00:0.15 / mixed_ref=1 / me_range=32 / chroma_me=1 / trellis=0 / 8x8dct=1 / cqm=0 / deadzone=21,11 / fast_pskip=0 / chroma_qp_offset=-2 / threads=17 / lookahead_threads=1 / sliced_threads=0 / nr=0 / decimate=0 / interlaced=0 / bluray_compat=0 / constrained_intra=0 / bframes=3 / b_pyramid=0 / b_adapt=2 / b_bias=0 / direct=1 / weightb=0 / open_gop=0 / weightp=0 / keyint=240 / keyint_min=24 / scenecut=40 / intra_refresh=0 / rc_lookahead=40 / rc=2pass / mbtree=1 / bitrate=3500 / ratetol=1.0 / qcomp=0.65 / qpmin=0 / qpmax=69 / qpstep=4 / cplxblur=20.0 / qblur=0.5 / vbv_maxrate=9500 / vbv_bufsize=9500 / nal_hrd=none / filler=0 / ip_ratio=1.40 / aq=1:1.10
Language : English
Encoded date : UTC 2018-02-11 11:01:11
Tagged date : UTC 2018-02-11 11:01:20
Color range : Limited
Color primaries : BT.709
Transfer characteristics : BT.709
Matrix coefficients : BT.709
Menus : 8,9

Video #2
ID : 9
Format : JPEG
Codec ID : jpeg
Duration : 1h 45mn
Bit rate mode : Variable
Bit rate : 788 bps
Width : 640 pixels
Height : 272 pixels
Display aspect ratio : 2.35:1
Frame rate mode : Variable
Frame rate : 0.003 fps
Minimum frame rate : 0.001 fps
Maximum frame rate : 0.007 fps
Color space : YUV
Chroma subsampling : 4:2:0
Bit depth : 8 bits
Compression mode : Lossy
Bits/(Pixel*Frame) : 1.509
Stream size : 513 KiB (0%)
Title : Chapter Images
Language : English
Default : No
Encoded date : UTC 2018-02-11 11:02:14
Tagged date : UTC 2018-02-11 11:02:14
Menu For : 1

Audio #1
ID : 2
Format : AAC
Format/Info : Advanced Audio Codec
Format profile : LC
Codec ID : mp4a-40-2
Duration : 1h 45mn
Source duration : 1h 45mn
Bit rate mode : Variable
Bit rate : 158 Kbps
Maximum bit rate : 240 Kbps
Channel(s) : 2 channels
Channel positions : Front: L R
Sampling rate : 48.0 KHz
Frame rate : 46.875 fps (1024 SPF)
Compression mode : Lossy
Stream size : 119 MiB (3%)
Source stream size : 119 MiB (3%)
Title : Russian Stereo
Language : Russian
Default : Yes
Alternate group : 1
Encoded date : UTC 2018-02-11 11:01:12
Tagged date : UTC 2018-02-11 11:02:10
Fallback From : 4

Audio #2
ID : 3
Format : AAC
Format/Info : Advanced Audio Codec
Format profile : LC
Codec ID : mp4a-40-2
Duration : 1h 45mn
Source duration : 1h 45mn
Bit rate mode : Variable
Bit rate : 158 Kbps
Maximum bit rate : 238 Kbps
Channel(s) : 2 channels
Channel positions : Front: L R
Sampling rate : 48.0 KHz
Frame rate : 46.875 fps (1024 SPF)
Compression mode : Lossy
Stream size : 120 MiB (3%)
Source stream size : 120 MiB (3%)
Title : English Stereo
Language : English
Default : No
Alternate group : 1
Encoded date : UTC 2018-02-11 11:01:12
Tagged date : UTC 2018-02-11 11:02:10
Fallback From : 5

Audio #3
ID : 4
Format : AC-3
Format/Info : Audio Coding 3
Codec ID : ac-3
Duration : 1h 45mn
Bit rate mode : Constant
Bit rate : 640 Kbps
Channel(s) : 6 channels
Channel positions : Front: L C R, Side: L R, LFE
Sampling rate : 48.0 KHz
Frame rate : 31.250 fps (1536 SPF)
Bit depth : 16 bits
Compression mode : Lossy
Stream size : 483 MiB (13%)
Title : Russian DD 5.1
Language : Russian
Service kind : Complete Main
Default : Inherited From: 2
Alternate group : 1
Encoded date : UTC 2018-02-11 11:01:12
Tagged date : UTC 2018-02-11 11:02:10
Fallback To : 2

Audio #4
ID : 5
Format : AC-3
Format/Info : Audio Coding 3
Codec ID : ac-3
Duration : 1h 45mn
Bit rate mode : Constant
Bit rate : 640 Kbps
Channel(s) : 6 channels
Channel positions : Front: L C R, Side: L R, LFE
Sampling rate : 48.0 KHz
Frame rate : 31.250 fps (1536 SPF)
Bit depth : 16 bits
Compression mode : Lossy
Stream size : 483 MiB (13%)
Title : English DD 5.1
Language : English
Service kind : Complete Main
Default : No
Alternate group : 1
Encoded date : UTC 2018-02-11 11:01:12
Tagged date : UTC 2018-02-11 11:02:10
Fallback To : 3

Text #1
ID : 6
Format : Timed Text
Muxing mode : sbtl
Codec ID : tx3g
Duration : 1h 41mn
Bit rate mode : Variable
Bit rate : 96 bps
Stream size : 71.3 KiB (0%)
Title : Russian full
Language : Russian
Default : Yes
Forced : No
Alternate group : 2
Encoded date : UTC 2018-02-11 11:01:12
Tagged date : UTC 2018-02-11 11:02:08

Text #2
ID : 7
Format : Timed Text
Muxing mode : sbtl
Codec ID : tx3g
Duration : 1h 41mn
Bit rate mode : Variable
Bit rate : 85 bps
Stream size : 63.5 KiB (0%)
Title : English full
Language : English
Default : No
Forced : No
Alternate group : 2
Encoded date : UTC 2018-02-11 11:01:12
Tagged date : UTC 2018-02-11 11:02:08

Menu #1
00:00:00.000 : 00:00:00.000
00:06:02.153 : 00:06:02.153
00:15:28.886 : 00:15:28.845
00:17:56.367 : 00:17:56.367
00:21:30.456 : 00:21:30.456
00:28:05.559 : 00:28:05.559
00:33:13.158 : 00:33:13.158
00:42:36.554 : 00:42:36.554
00:46:16.274 : 00:46:16.273
00:53:10.729 : 00:53:10.729
00:58:43.145 : 00:58:43.145
01:05:58.955 : 01:05:58.872
01:11:50.306 : 01:11:50.306
01:15:08.379 : 01:15:08.379
01:26:46.201 : 01:26:46.201
01:33:46.204 : 01:33:46.204

Menu #2
ID : 8
Codec ID : text
Duration : 1h 45mn
Language : English
Encoded date : UTC 2018-02-11 11:02:10
Tagged date : UTC 2018-02-11 11:02:10
Bit rate mode : CBR
Menu For : 1
00:00:00.000 : 00:00:00.000
00:06:02.153 : 00:06:02.153
00:15:28.886 : 00:15:28.845
00:17:56.367 : 00:17:56.367
00:21:30.456 : 00:21:30.456
00:28:05.559 : 00:28:05.559
00:33:13.158 : 00:33:13.158
00:42:36.554 : 00:42:36.554
00:46:16.274 : 00:46:16.273
00:53:10.729 : 00:53:10.729
00:58:43.145 : 00:58:43.145
01:05:58.955 : 01:05:58.872
01:11:50.306 : 01:11:50.306
01:15:08.379 : 01:15:08.379
01:26:46.201 : 01:26:46.201
01:33:46.204 : 01:33:46.204
x264 [info]: frame I:1756 Avg QP:14.24 size: 92082
x264 [info]: frame P:56597 Avg QP:17.06 size: 30123
x264 [info]: frame B:93399 Avg QP:18.60 size: 9662
x264 [info]: consecutive B-frames: 5.8% 29.8% 19.6% 44.8%
x264 [info]: mb I I16..4: 6.5% 64.5% 29.0%
x264 [info]: mb P I16..4: 1.4% 6.2% 2.7% P16..4: 45.6% 27.0% 11.1% 0.0% 0.0% skip: 6.0%
x264 [info]: mb B I16..4: 0.1% 0.7% 0.3% B16..8: 50.9% 12.5% 1.8% direct: 3.5% skip:30.3% L0:42.1% L1:52.3% BI: 5.7%
x264 [info]: 8x8 transform intra:62.0% inter:44.5%
x264 [info]: coded y,uvDC,uvAC intra: 87.0% 81.6% 60.6% inter: 25.8% 18.5% 9.7%
x264 [info]: i16 v,h,dc,p: 32% 13% 8% 47%
x264 [info]: i8 v,h,dc,ddl,ddr,vr,hd,vl,hu: 8% 7% 5% 12% 16% 15% 15% 12% 11%
x264 [info]: i4 v,h,dc,ddl,ddr,vr,hd,vl,hu: 8% 7% 3% 13% 18% 16% 14% 11% 9%
x264 [info]: i8c dc,h,v,p: 50% 17% 21% 13%
x264 [info]: ref P L0: 70.7% 17.3% 12.0%
x264 [info]: ref B L0: 78.7% 21.3%
x264 [info]: kb/s:3499.88

Apple TV, iPad, iPhone, iPod Touch.
Windows VLC media player

 ·  , , FAQ-
:  [ 11--2018 14:42 ]

  

.torrent

.torrent 38 KB


: 3.76 GB
(hash) : 36ff7ddab8690f3f9337dbc42118628130603198
··
...

Accident Man . !

!