ROMs and modifications | Galaxy S2 (I9100) | General Discussions

[ATV3] Accident Man torrent

, , - AdBlock. #!


7.08 GB   |    :  8    |    .torrent :  8    |   
1  
   
...
 

Galfimbul

avatar Galfimbul


/ Accident Man
-

6.140 / 10 / 10
: 2018
:
: , ,
: 01:45:29

: (Blu-ray EUR)
:
C: ,
:
: , Stu Small, Pat Mills
: , ,
: Duane McClunie
:
: , Ryan Kaercher,
:
: , , , , , , , , , Β

: 5 2018

: 05 2018, Sony Pictures Home Entertainment

: , . , .
: BDRemux (NNMClub)
: BDRip
: HD (1080p)
: M4V
: H.264, 1920x800, 2.40:1, 8 000 Kbps, 23.976 (24000/1001) fps

1: / (Blu-ray EUR), AAC / 2.0 / 160 Kbps / 48.0 KHz
2: / , AAC / 2.0 / 160 Kbps / 48.0 KHz
3: / (Blu-ray EUR), AC-3 / 5.1 / 640 Kbps / 48.0 KHz
4: / , AC-3 / 5.1 / 640 Kbps / 48.0 KHz

1:
2:
Sort Name: Accident Man
XID: Apple:vendor_id:2017-1008357
contentID: 1332164973
Screenwriters: , Stu Small, Pat Mills
Producers: , ,
Director:
Cast: , , , , , , , , , Β
Studio: LINK Entertainment
Rating: 5
Long Description: , . , .
Description: , . , .
Release Date: 2018-02-06T08:00:00Z
Genre: Action & Adventure
Artist: Jesse V. Johnson
Name: Accident Man
General
Complete name : /Users/imac/HandBrake/Accident Man (1080p HD).m4v
Format : MPEG-4
Codec ID : M4V (M4V /M4A /mp42/isom)
File size : 7.08 GiB
Duration : 1h 45mn
Overall bit rate mode : Variable
Overall bit rate : 9 605 Kbps
Movie name : Accident Man
Performer : Jesse V. Johnson
Director :
Actor : / / / / / / / / / Β
Screenplay by : / Stu Small / Pat Mills
Producer : / /
Production studio : LINK Entertainment
Genre : Action & Adventure
ContentType : Short Film
Description : , . , .
Recorded date : UTC 2018-02-06 08:00:00
Encoded date : UTC 2018-02-11 09:53:07
Tagged date : UTC 2018-02-11 09:56:43
Cover : Yes
Rating : None
Title/Sort : Accident Man
LongDescription : , . , .
AppleStoreCatalogID : 1332164973
Vendor : Apple:vendor_id:2017-1008357
ContentRating : mpaa|R|400|

Video #1
ID : 1
Format : AVC
Format/Info : Advanced Video Codec
Format profile : [email protected]
Format settings : CABAC / 4 Ref Frames
Format settings, CABAC : Yes
Format settings, ReFrames : 4 frames
Codec ID : avc1
Codec ID/Info : Advanced Video Coding
Duration : 1h 45mn
Source duration : 1h 45mn
Bit rate : 8 000 Kbps
Width : 1 920 pixels
Height : 800 pixels
Display aspect ratio : 2.40:1
Frame rate mode : Variable
Frame rate : 23.976 (24000/1001) fps
Minimum frame rate : 23.974 fps
Maximum frame rate : 23.981 fps
Color space : YUV
Chroma subsampling : 4:2:0
Bit depth : 8 bits
Scan type : Progressive
Bits/(Pixel*Frame) : 0.217
Stream size : 5.89 GiB (83%)
Source stream size : 5.89 GiB (83%)
Title : Main Program
Writing library : x264 core 148 r2708 86b7198
Encoding settings : cabac=1 / ref=4 / deblock=1:-2:-2 / analyse=0x3:0x133 / me=umh / subme=10 / psy=1 / psy_rd=1.00:0.15 / mixed_ref=1 / me_range=32 / chroma_me=1 / trellis=2 / 8x8dct=1 / cqm=0 / deadzone=21,11 / fast_pskip=1 / chroma_qp_offset=-3 / threads=25 / lookahead_threads=6 / sliced_threads=0 / nr=0 / decimate=0 / interlaced=0 / bluray_compat=0 / constrained_intra=0 / bframes=16 / b_pyramid=2 / b_adapt=2 / b_bias=0 / direct=3 / weightb=1 / open_gop=0 / weightp=2 / keyint=240 / keyint_min=24 / scenecut=40 / intra_refresh=0 / rc_lookahead=40 / rc=2pass / mbtree=1 / bitrate=8000 / ratetol=1.0 / qcomp=0.70 / qpmin=0 / qpmax=69 / qpstep=4 / cplxblur=20.0 / qblur=0.5 / ip_ratio=1.40 / aq=1:1.00
Language : English
Encoded date : UTC 2018-02-11 09:53:07
Tagged date : UTC 2018-02-11 09:53:25
Color range : Limited
Color primaries : BT.709
Transfer characteristics : BT.709
Matrix coefficients : BT.709
Menus : 8,9

Video #2
ID : 9
Format : JPEG
Codec ID : jpeg
Duration : 1h 45mn
Bit rate mode : Variable
Bit rate : 775 bps
Width : 640 pixels
Height : 266 pixels
Display aspect ratio : 2.40:1
Frame rate mode : Variable
Frame rate : 0.003 fps
Minimum frame rate : 0.001 fps
Maximum frame rate : 0.007 fps
Color space : YUV
Chroma subsampling : 4:2:0
Bit depth : 8 bits
Compression mode : Lossy
Bits/(Pixel*Frame) : 1.517
Stream size : 505 KiB (0%)
Title : Chapter Images
Language : English
Default : No
Encoded date : UTC 2018-02-11 09:53:36
Tagged date : UTC 2018-02-11 09:53:37
Menu For : 1

Audio #1
ID : 2
Format : AAC
Format/Info : Advanced Audio Codec
Format profile : LC
Codec ID : mp4a-40-2
Duration : 1h 45mn
Source duration : 1h 45mn
Bit rate mode : Variable
Bit rate : 158 Kbps
Maximum bit rate : 240 Kbps
Channel(s) : 2 channels
Channel positions : Front: L R
Sampling rate : 48.0 KHz
Frame rate : 46.875 fps (1024 SPF)
Compression mode : Lossy
Stream size : 119 MiB (2%)
Source stream size : 119 MiB (2%)
Title : Russian Stereo
Language : Russian
Default : Yes
Alternate group : 1
Encoded date : UTC 2018-02-11 09:53:07
Tagged date : UTC 2018-02-11 09:53:29
Fallback From : 4
Menus : 8

Audio #2
ID : 3
Format : AAC
Format/Info : Advanced Audio Codec
Format profile : LC
Codec ID : mp4a-40-2
Duration : 1h 45mn
Source duration : 1h 45mn
Bit rate mode : Variable
Bit rate : 158 Kbps
Maximum bit rate : 238 Kbps
Channel(s) : 2 channels
Channel positions : Front: L R
Sampling rate : 48.0 KHz
Frame rate : 46.875 fps (1024 SPF)
Compression mode : Lossy
Stream size : 120 MiB (2%)
Source stream size : 120 MiB (2%)
Title : English Stereo
Language : English
Default : No
Alternate group : 1
Encoded date : UTC 2018-02-11 09:53:07
Tagged date : UTC 2018-02-11 09:53:29
Fallback From : 5

Audio #3
ID : 4
Format : AC-3
Format/Info : Audio Coding 3
Codec ID : ac-3
Duration : 1h 45mn
Bit rate mode : Constant
Bit rate : 640 Kbps
Channel(s) : 6 channels
Channel positions : Front: L C R, Side: L R, LFE
Sampling rate : 48.0 KHz
Frame rate : 31.250 fps (1536 SPF)
Bit depth : 16 bits
Compression mode : Lossy
Stream size : 483 MiB (7%)
Title : Russian DD 5.1
Language : Russian
Service kind : Complete Main
Default : Inherited From: 2
Alternate group : 1
Encoded date : UTC 2018-02-11 09:53:07
Tagged date : UTC 2018-02-11 09:53:19
Fallback To : 2

Audio #4
ID : 5
Format : AC-3
Format/Info : Audio Coding 3
Codec ID : ac-3
Duration : 1h 45mn
Bit rate mode : Constant
Bit rate : 640 Kbps
Channel(s) : 6 channels
Channel positions : Front: L C R, Side: L R, LFE
Sampling rate : 48.0 KHz
Frame rate : 31.250 fps (1536 SPF)
Bit depth : 16 bits
Compression mode : Lossy
Stream size : 483 MiB (7%)
Title : English DD 5.1
Language : English
Service kind : Complete Main
Default : No
Alternate group : 1
Encoded date : UTC 2018-02-11 09:53:07
Tagged date : UTC 2018-02-11 09:53:19
Fallback To : 3

Text #1
ID : 6
Format : Timed Text
Muxing mode : sbtl
Codec ID : tx3g
Duration : 1h 41mn
Bit rate mode : Variable
Bit rate : 96 bps
Stream size : 71.4 KiB (0%)
Title : Russian full
Language : Russian
Default : Yes
Forced : No
Alternate group : 2
Encoded date : UTC 2018-02-11 09:53:07
Tagged date : UTC 2018-02-11 09:53:08

Text #2
ID : 7
Format : Timed Text
Muxing mode : sbtl
Codec ID : tx3g
Duration : 1h 41mn
Bit rate mode : Variable
Bit rate : 85 bps
Stream size : 63.6 KiB (0%)
Title : English full
Language : English
Default : No
Forced : No
Alternate group : 2
Encoded date : UTC 2018-02-11 09:53:07
Tagged date : UTC 2018-02-11 09:53:08

Menu #1
00:00:00.000 : 00:00:00.000
00:06:02.153 : 00:06:02.153
00:15:28.886 : 00:15:28.845
00:17:56.367 : 00:17:56.367
00:21:30.456 : 00:21:30.456
00:28:05.559 : 00:28:05.559
00:33:13.158 : 00:33:13.158
00:42:36.554 : 00:42:36.554
00:46:16.274 : 00:46:16.273
00:53:10.729 : 00:53:10.729
00:58:43.145 : 00:58:43.145
01:05:58.955 : 01:05:58.872
01:11:50.306 : 01:11:50.306
01:15:08.379 : 01:15:08.379
01:26:46.201 : 01:26:46.201
01:33:46.204 : 01:33:46.204

Menu #2
ID : 8
Codec ID : text
Duration : 1h 45mn
Language : English
Encoded date : UTC 2018-02-11 09:53:29
Tagged date : UTC 2018-02-11 09:53:29
Bit rate mode : CBR
Menu For : 2,1
00:00:00.000 : 00:00:00.000
00:06:02.153 : 00:06:02.153
00:15:28.886 : 00:15:28.845
00:17:56.367 : 00:17:56.367
00:21:30.456 : 00:21:30.456
00:28:05.559 : 00:28:05.559
00:33:13.158 : 00:33:13.158
00:42:36.554 : 00:42:36.554
00:46:16.274 : 00:46:16.273
00:53:10.729 : 00:53:10.729
00:58:43.145 : 00:58:43.145
01:05:58.955 : 01:05:58.872
01:11:50.306 : 01:11:50.306
01:15:08.379 : 01:15:08.379
01:26:46.201 : 01:26:46.201
01:33:46.204 : 01:33:46.204
x264 [info]: frame I:1005 Avg QP:15.47 size:181062
x264 [info]: frame P:37106 Avg QP:18.90 size: 67540
x264 [info]: frame B:113641 Avg QP:19.48 size: 32037
x264 [info]: consecutive B-frames: 4.3% 5.1% 8.7% 20.3% 17.2% 27.9% 8.0% 6.5% 1.0% 0.1% 0.2% 0.5% 0.1% 0.0% 0.0% 0.0% 0.0%
x264 [info]: mb I I16..4: 8.7% 80.1% 11.1%
x264 [info]: mb P I16..4: 1.9% 18.4% 1.1% P16..4: 44.0% 18.5% 10.6% 0.3% 0.1% skip: 5.2%
x264 [info]: mb B I16..4: 0.1% 2.1% 0.1% B16..8: 48.3% 11.7% 2.7% direct: 6.9% skip:28.1% L0:46.2% L1:44.0% BI: 9.8%
x264 [info]: 8x8 transform intra:87.1% inter:57.5%
x264 [info]: direct mvs spatial:99.2% temporal:0.8%
x264 [info]: coded y,uvDC,uvAC intra: 91.4% 85.6% 63.5% inter: 34.5% 27.6% 8.8%
x264 [info]: i16 v,h,dc,p: 19% 13% 15% 54%
x264 [info]: i8 v,h,dc,ddl,ddr,vr,hd,vl,hu: 8% 7% 11% 11% 14% 12% 13% 12% 13%
x264 [info]: i4 v,h,dc,ddl,ddr,vr,hd,vl,hu: 10% 8% 3% 10% 15% 14% 15% 11% 13%
x264 [info]: i8c dc,h,v,p: 44% 21% 18% 17%
x264 [info]: Weighted P-Frames: Y:1.2% UV:0.7%
x264 [info]: ref P L0: 53.8% 9.1% 25.4% 11.0% 0.8% 0.0%
x264 [info]: ref B L0: 83.8% 13.5% 2.8%
x264 [info]: ref B L1: 93.8% 6.2%
x264 [info]: kb/s:7999.30

Apple TV, iPad, iPhone, iPod Touch.
Windows VLC media player

 ·  , , FAQ-
:  [ 11--2018 14:12 ]

  

.torrent

.torrent 71 KB


: 7.08 GB
(hash) : bc239b7c1abbd8d2bdcff89183b693cef4044ebf
··
...

[ATV3] Accident Man . !

!