Link Mp3 | Helldriver 2010 DVDRip H264 AAC KiNGDOM | disobedience 2017

Скачать через торрент Мученики Бельгии Het verdriet van Belgie Фильм бесплатно в хорошем качестве torrent

Скачивайте на UnionPeer.org фильмы через торрент без регистрации. Новинки кино в хорошем качестве через торрент. На UnionPeer.org можно скачать через торрент фильмы 2014 и 2015 годов. Самые новые фильмы.

Скачать торрент Мученики Бельгии Het verdriet van Belgie бесплатно через .torrent фильм мультфильм сериал

Статистика раздачи
Размер:  1.35 GB   |    Зарегистрирован:  6 месяцев   |    .torrent скачан:  24 раза   |   
Раздают:  1  
   
загрузка...
 
Автор Сообщение

Galfimbul

avatar Galfimbul


Мученики Бельгии / Het verdriet van Belgie

Страна: Франция, Нидерланды, Бельгия
Жанр: драма
Год выпуска: 1995
Продолжительность: 02:59:35 (01:29:09 + 01:30:26)
Перевод: Субтитры русские (Lisok) внешние, французские встроенные не отключаемые
Субтитры: русские
Оригинальная аудиодорожка: французский
Режиссер: Claude Goretta / Клод Горетта

В ролях: Марианна Баслер, Дэмиен Де Шрайвер, Матиас Энгельбин, Ронни Куйт, Дирк Рофтуфт, Луи Богартс, Рик ван Уффелен

Описание: Фильм "Het verdriet van België" - экранизация одноименного романа Хюго Клауса, история о взрослении и выживании Луи и его фламандской семьи перед началом второй мировой и под немецкой оккупацией во время войны. Первый эпизод фильма о предвоенном времени, Луи учится в школе-интернате при женском католическом монастыре. Второй о периоде немецкой оккупации, жизни и адаптации к новым порядкам.



Качество видео: VHSRip
Формат видео: AVI

Видео: 720x576 (1.25:1), 25 fps, DivX Codec 5.1, ~940 kbps avg, 0.09 bit/pixel
Аудио: 48 kHz, MPEG Layer 3, 2 ch, ~128.00 kbps avg
ОбщееПолное имя : I:\Мученики Бельгии Het verdriet van Belgie (1995) VHS-Rip 2-Е серии\Мученики Бельгии Het verdriet van Belgie (1995) VHS-Rip 1-я серия.AVIФормат : AVIФормат/Информация : Audio Video InterleaveРазмер файла : 688 МбайтПродолжительность : 1 ч. 29 м.Общий поток : 1078 Кбит/секНазвание фильма : Мученики Бельгии Het verdriet van Belgie (1995) VHS-Rip 1-я серия.AVI

ВидеоИдентификатор : 0Формат : MPEG-4 VisualПараметр BVOP формата : НетПараметр QPel формата : НетПараметр GMC формата : Без точки переходаПараметр матрицы формата : Default (H.263)Идентификатор кодека : DX50Идентификатор кодека/Подсказка : DivX 5Продолжительность : 1 ч. 29 м.Битрейт : 941 Кбит/секШирина : 720 пикселейВысота : 576 пикселейСоотношение сторон : 5:4Частота кадров : 25,000 кадров/секСтандарт вещания : PALЦветовое пространство : YUVСубдискретизация насыщенности : 4:2:0Битовая глубина : 8 битТип развёртки : ПрогрессивнаяМетод сжатия : С потерямиБит/(Пиксели*Кадры) : 0.091Размер потока : 600 Мбайт (87%)Библиотека кодирования : DivX 5.1.0 (UTC 2003-09-02)

АудиоИдентификатор : 1Формат : MPEG AudioВерсия формата : Version 1Профиль формата : Layer 3Режим : Joint stereoРасширение режима : MS StereoИдентификатор кодека : 55Идентификатор кодека/Подсказка : MP3Продолжительность : 1 ч. 29 м.Вид битрейта : ПостоянныйБитрейт : 128 Кбит/секКаналы : 2 каналаЧастота : 48,0 КГцМетод сжатия : С потерямиРазмер потока : 81,6 Мбайт (12%)Выравнивание : Разделение по промежуткамПродолжительность промежутка : 40 мс. (1,00 видеокадр)Время предзагрузки промежутка : 500 мс.


Трекер:  [ 11-Фев-2018 11:48 ]

  

Скачать .torrent

Размер .torrent файла 14 KB


Размер: 1.35 GB
Хэш (hash) релиза: 7c6d845b41a499a2bb49a87d0ed44de15207118a
Подписка на обновления:

Еще никто не оставлял запись к записи скачать торрент Мученики Бельгии Het verdriet van Belgie . Будь первым!

!Обратная связь